<?xml version="1.0" standalone="no"?>
<!DOCTYPE svg PUBLIC "-//W3C//DTD SVG 1.1//EN" "http://www.w3.org/Graphics/SVG/1.1/DTD/svg11.dtd" >
<svg xmlns="http://www.w3.org/2000/svg">
<metadata>Generated by IcoMoon</metadata>
<defs>
<font id="icomoon" horiz-adv-x="1024">
<font-face units-per-em="1024" ascent="960" descent="-64" />
<missing-glyph horiz-adv-x="1024" />
<glyph unicode="&#x20;" horiz-adv-x="512" d="" />
<glyph unicode="&#xe900;" glyph-name="trash" d="M653.245 589.003c-13.246 0-23.981-10.735-23.981-23.981v-453.245c0-13.236 10.735-23.981 23.981-23.981s23.981 10.745 23.981 23.981v453.245c0 13.246-10.735 23.981-23.981 23.981zM370.267 589.003c-13.246 0-23.981-10.735-23.981-23.981v-453.245c0-13.236 10.735-23.981 23.981-23.981s23.981 10.745 23.981 23.981v453.245c0 13.246-10.735 23.981-23.981 23.981zM164.029 655.148v-590.846c0-34.923 12.806-67.719 35.176-91.25 22.267-23.597 53.255-36.993 85.686-37.049h453.732c32.44 0.056 63.428 13.452 85.686 37.049 22.37 23.532 35.176 56.328 35.176 91.25v590.846c44.468 11.803 73.283 54.763 67.335 100.393-5.958 45.62-44.824 79.747-90.838 79.756h-122.782v29.976c0.141 25.208-9.827 49.414-27.672 67.222-17.845 17.799-42.089 27.71-67.297 27.503h-212.945c-25.208 0.206-49.452-9.705-67.297-27.503-17.845-17.808-27.813-42.014-27.672-67.222v-29.976h-122.782c-46.014-0.009-84.88-34.136-90.838-79.756-5.948-45.63 22.866-88.59 67.335-100.393zM738.622-16.034h-453.732c-41.002 0-72.899 35.222-72.899 80.337v588.738h599.53v-588.738c0-45.115-31.897-80.337-72.899-80.337zM358.277 865.274c-0.159 12.487 4.749 24.506 13.611 33.321 8.852 8.815 20.899 13.658 33.396 13.443h212.945c12.496 0.215 24.543-4.628 33.396-13.443 8.862-8.806 13.77-20.834 13.611-33.321v-29.976h-306.959zM187.533 787.335h648.448c23.841 0 43.166-19.325 43.166-43.166s-19.325-43.166-43.166-43.166h-648.448c-23.841 0-43.166 19.325-43.166 43.166s19.325 43.166 43.166 43.166zM511.756 589.003c-13.246 0-23.981-10.735-23.981-23.981v-453.245c0-13.236 10.735-23.981 23.981-23.981s23.981 10.745 23.981 23.981v453.245c0 13.246-10.735 23.981-23.981 23.981z" />
<glyph unicode="&#xe901;" glyph-name="view" d="M1017.492 467.917c-9.148 12.514-227.114 306.413-505.497 306.413s-496.359-293.899-505.497-306.401c-8.664-11.872-8.664-27.974 0-39.846 9.138-12.514 227.114-306.413 505.497-306.413s496.349 293.901 505.497 306.403c8.676 11.87 8.676 27.984 0 39.844zM511.995 189.186c-205.058 0-382.661 195.066-435.235 258.837 52.506 63.826 229.736 258.791 435.235 258.791 205.048 0 382.639-195.032 435.235-258.837-52.506-63.824-229.736-258.791-435.235-258.791zM511.995 650.549c-111.684 0-202.55-90.866-202.55-202.55s90.866-202.55 202.55-202.55 202.55 90.866 202.55 202.55-90.866 202.55-202.55 202.55zM511.995 312.967c-74.46 0-135.032 60.574-135.032 135.032s60.574 135.032 135.032 135.032 135.032-60.574 135.032-135.032-60.572-135.032-135.032-135.032z" />
<glyph unicode="&#xe902;" glyph-name="search-insurance" d="M913.836 838h-803.672c-60.742 0-110.164-49.422-110.164-110.164v-559.672c0-60.742 49.422-110.164 110.164-110.164h803.672c60.742 0 110.164 49.422 110.164 110.164v559.672c0 60.742-49.422 110.164-110.164 110.164zM964 168.164c0-27.656-22.508-50.164-50.164-50.164h-803.672c-27.656 0-50.164 22.508-50.164 50.164v559.672c0 27.656 22.508 50.164 50.164 50.164h803.672c27.656 0 50.164-22.508 50.164-50.164zM512 538h-90.5v90c0 16.57-13.43 30-30 30h-120.5c-16.57 0-30-13.43-30-30v-90h-90.5c-16.57 0-30-13.43-30-30v-120c0-16.57 13.43-30 30-30h90.5v-90c0-16.57 13.43-30 30-30h120.5c16.57 0 30 13.43 30 30v90h90.5c16.57 0 30 13.43 30 30v120c0 16.57-13.43 30-30 30zM482 418h-90.5c-16.57 0-30-13.43-30-30v-90h-60.5v90c0 16.57-13.43 30-30 30h-90.5v60h90.5c16.57 0 30 13.43 30 30v90h60.5v-90c0-16.57 13.43-30 30-30h90.5zM873.5 658h-241c-16.57 0-30-13.43-30-30s13.43-30 30-30h241c16.57 0 30 13.43 30 30s-13.43 30-30 30zM873.5 538h-241c-16.57 0-30-13.43-30-30s13.43-30 30-30h241c16.57 0 30 13.43 30 30s-13.43 30-30 30zM873.5 418h-241c-16.57 0-30-13.43-30-30s13.43-30 30-30h241c16.57 0 30 13.43 30 30s-13.43 30-30 30zM813.25 298h-180.75c-16.57 0-30-13.43-30-30s13.43-30 30-30h180.75c16.57 0 30 13.43 30 30s-13.43 30-30 30z" />
<glyph unicode="&#xe903;" glyph-name="caution" d="M1001.472 502.272l-435.2 435.2c-29.901 29.901-78.438 29.901-108.339 0l-435.405-435.2c-29.901-29.901-29.901-78.438 0-108.339l435.2-435.405c29.901-29.901 78.438-29.901 108.339 0l435.405 435.2c30.106 30.106 30.106 78.438 0 108.544zM470.835 666.726c0 22.528 18.432 40.96 41.165 40.96 22.528 0 40.96-18.227 40.96-40.96v-245.965c0-22.528-18.227-40.96-40.96-40.96s-41.165 18.432-41.165 40.96v245.965zM512 188.518c-30.106 0-54.682 24.576-54.682 54.682s24.576 54.682 54.682 54.682 54.682-24.576 54.682-54.682c0-30.106-24.576-54.682-54.682-54.682z" />
<glyph unicode="&#xe904;" glyph-name="location" d="M512.002-64c-22.352 0-42.368 11.592-53.54 31.010-0.118 0.204-0.232 0.41-0.346 0.616l-253.924 464.772c-60.612 110.942-58.874 242.624 4.65 352.248 62.146 107.248 172.53 172.77 295.278 175.274 5.244 0.108 10.516 0.108 15.756 0 122.75-2.504 233.134-68.026 295.282-175.274 63.524-109.624 65.262-241.304 4.65-352.248l-253.924-464.772c-0.114-0.206-0.228-0.412-0.346-0.616-11.17-19.416-31.184-31.010-53.536-31.010zM512 896c-2.198 0-4.39-0.022-6.578-0.066-100.198-2.044-190.37-55.642-241.208-143.376-52.214-90.11-53.658-198.324-3.86-289.472l251.646-460.6 251.644 460.598c49.798 91.15 48.356 199.364-3.862 289.474-50.838 87.732-141.010 141.332-241.208 143.376-2.182 0.044-4.376 0.066-6.574 0.066zM512 496c-79.402 0-144 64.598-144 144s64.598 144 144 144 144-64.598 144-144-64.596-144-144-144zM512 720c-44.112 0-80-35.888-80-80s35.888-80 80-80 80 35.888 80 80-35.888 80-80 80z" />
<glyph unicode="&#xe905;" glyph-name="location-filled" d="M815.158 784.646c-62.146 107.248-172.53 172.77-295.28 175.274-5.24 0.108-10.514 0.108-15.756 0-122.748-2.504-233.132-68.026-295.28-175.274-63.524-109.624-65.262-241.304-4.65-352.246l253.926-464.774c0.114-0.206 0.228-0.412 0.346-0.616 11.172-19.418 31.186-31.010 53.54-31.010 22.352 0 42.366 11.594 53.536 31.010 0.118 0.204 0.232 0.41 0.346 0.616l253.926 464.774c60.608 110.942 58.87 242.622-4.654 352.246zM512 496c-79.402 0-144 64.598-144 144s64.598 144 144 144 144-64.598 144-144-64.596-144-144-144z" />
<glyph unicode="&#xe906;" glyph-name="search" d="M409.6 896c15.36 0 30.72 0 46.080 0 7.68 0 15.36-2.56 23.040-2.56 79.36-10.24 148.48-46.080 204.8-102.4s89.6-122.88 99.84-202.24c7.68-69.12-2.56-135.68-33.28-197.12-12.8-25.6-28.16-48.64-46.080-76.8 5.12-5.12 15.36-12.8 23.040-20.48 61.44-61.44 120.32-125.44 181.76-186.88 12.8-15.36 20.48-30.72 12.8-51.2-5.12-17.92-17.92-25.6-35.84-30.72-5.12 0-10.24 0-17.92 0-15.36 5.12-25.6 15.36-35.84 25.6-64 66.56-128 133.12-189.44 197.12-2.56 2.56-5.12 5.12-5.12 7.68-2.56-2.56-5.12-2.56-5.12-5.12-58.88-38.4-122.88-58.88-192-58.88-74.24 0-140.8 20.48-202.24 61.44-58.88 40.96-99.84 89.6-125.44 148.48-28.16 64-35.84 130.56-25.6 197.12 10.24 74.24 40.96 135.68 92.16 189.44s112.64 87.040 186.88 102.4c12.8 2.56 28.16 5.12 43.52 5.12zM432.64 806.4c-140.8 0-258.56-115.2-258.56-258.56-2.56-143.36 115.2-258.56 258.56-261.12 140.8-2.56 258.56 112.64 258.56 258.56 2.56 140.8-115.2 258.56-258.56 261.12z" />
<glyph unicode="&#xe907;" glyph-name="magnifier-min" d="M952.32 104.96l-199.68 199.68c40.96 61.44 66.56 138.24 66.56 215.040 0 215.040-174.080 394.24-394.24 394.24s-394.24-174.080-394.24-394.24 174.080-394.24 394.24-394.24c81.92 0 153.6 25.6 215.040 66.56l199.68-199.68c30.72-30.72 81.92-30.72 112.64 0 30.72 35.84 30.72 81.92 0 112.64zM148.48 519.68c0 148.48 122.88 276.48 276.48 276.48s276.48-122.88 276.48-276.48-122.88-276.48-276.48-276.48-276.48 128-276.48 276.48zM599.040 524.8c0 15.36-10.24 25.6-25.6 25.6h-307.2c-15.36 0-25.6-10.24-25.6-25.6s10.24-25.6 25.6-25.6h307.2c10.24-5.12 25.6 10.24 25.6 25.6z" />
<glyph unicode="&#xe908;" glyph-name="pin-lock" d="M884.736 259.584c20.48 0 36.864 16.384 36.864 36.864v143.36c0 86.016-69.632 155.648-151.552 155.648h-36.864v106.496c0 118.784-98.304 217.088-217.088 217.088s-217.088-98.304-217.088-217.088v-106.496h-36.864c-81.92 0-151.552-69.632-151.552-155.648v-315.392c0-86.016 65.536-155.648 151.552-155.648h507.904c81.92 0 151.552 69.632 151.552 155.648 0 20.48-16.384 36.864-36.864 36.864s-36.864-16.384-36.864-36.864c0-45.056-36.864-81.92-77.824-81.92h-507.904c-40.96 0-77.824 36.864-77.824 81.92v315.392c0 45.056 36.864 81.92 77.824 81.92h507.904c40.96 0 77.824-36.864 77.824-81.92v-143.36c0-20.48 16.384-36.864 36.864-36.864zM372.736 701.952c0 77.824 65.536 143.36 143.36 143.36s143.36-65.536 143.36-143.36v-106.496h-290.816l4.096 106.496zM548.864 292.352c0-20.48 16.384-36.864 36.864-36.864s36.864 16.384 36.864 36.864c0 20.48-16.384 36.864-36.864 36.864s-36.864-16.384-36.864-36.864zM413.696 292.352c0-20.48 16.384-36.864 36.864-36.864s36.864 16.384 36.864 36.864c0 20.48-16.384 36.864-36.864 36.864-24.576 0-36.864-16.384-36.864-36.864zM278.528 292.352c0-20.48 16.384-36.864 36.864-36.864s36.864 16.384 36.864 36.864c0 20.48-16.384 36.864-36.864 36.864-24.576 0-36.864-16.384-36.864-36.864zM684.032 292.352c0-20.48 16.384-36.864 36.864-36.864s36.864 16.384 36.864 36.864c0 20.48-16.384 36.864-36.864 36.864s-36.864-16.384-36.864-36.864z" />
<glyph unicode="&#xe909;" glyph-name="services" d="M978.944 620.032c-311.296 0-618.496 0-933.888 0 0-4.096 0-8.192 0-12.288 0-147.456 0-286.72 0-434.176 0-36.864 24.576-61.44 61.44-61.44s73.728 0 110.592 0c16.384 0 24.576-8.192 24.576-20.48s-8.192-20.48-24.576-20.48c-32.768 0-69.632 0-106.496 0-57.344 0-98.304 45.056-98.304 98.304 0 196.608 0 393.216 0 589.824 0 57.344 45.056 102.4 102.4 102.4 270.336 0 536.576 0 806.912 0 53.248 0 98.304-45.056 98.304-98.304 0-196.608 0-393.216 0-593.92 0-57.344-45.056-98.304-102.4-98.304-28.672 0-57.344 0-86.016 0-12.288 0-24.576 8.192-24.576 20.48s8.192 16.384 24.576 16.384c32.768 0 61.44 0 94.208 0s53.248 24.576 53.248 53.248c0 147.456 0 294.912 0 442.368 0 12.288 0 12.288 0 16.384zM45.056 660.992c311.296 0 622.592 0 929.792 0 0 4.096 0 4.096 0 4.096 0 40.96 0 81.92 0 118.784 0 28.672-24.576 53.248-53.248 53.248-274.432 0-548.864 0-823.296 0-32.768 0-53.248-24.576-53.248-53.248 0-12.288 0-28.672 0-45.056 0-28.672 0-53.248 0-77.824zM524.288-18.944c-53.248 0-106.496 0-155.648 0s-81.92 32.768-81.92 81.92c0 61.44 0 118.784 0 180.224 0 49.152 32.768 81.92 81.92 81.92 106.496 0 212.992 0 315.392 0 53.248 0 81.92-32.768 81.92-86.016 0-61.44 0-118.784 0-180.224 0-49.152-32.768-81.92-81.92-81.92-57.344 4.096-110.592 4.096-159.744 4.096zM724.992 153.088c-135.168 0-270.336 0-409.6 0 0-32.768 0-61.44 0-94.208 0-28.672 12.288-40.96 40.96-40.96 86.016 0 167.936 0 253.952 0 24.576 0 53.248 0 77.824 0 20.48 0 32.768 12.288 32.768 32.768 4.096 32.768 4.096 69.632 4.096 102.4zM319.488 251.392c135.168 0 270.336 0 405.504 0 4.096 24.576-12.288 40.96-32.768 40.96-73.728 0-147.456 0-221.184 0-40.96 0-77.824 0-118.784 0-20.48 0-36.864-16.384-32.768-40.96zM315.392 194.048c135.168 0 270.336 0 409.6 0 0 4.096 0 12.288 0 20.48-135.168 0-270.336 0-409.6 0 0-8.192 0-16.384 0-20.48zM516.096 415.232c4.096 4.096 4.096 8.192 8.192 12.288 32.768 32.768 69.632 69.632 102.4 106.496 4.096 4.096 4.096 4.096 8.192 8.192 8.192 4.096 16.384 4.096 24.576-4.096 4.096-8.192 8.192-16.384 0-24.576-4.096-4.096-12.288-12.288-16.384-20.48-36.864-36.864-73.728-73.728-110.592-114.688-12.288-12.288-24.576-12.288-32.768 0-24.576 24.576-53.248 53.248-77.824 81.92-8.192 8.192-8.192 20.48-4.096 28.672 8.192 8.192 20.48 4.096 28.672-4.096 20.48-20.48 40.96-40.96 57.344-61.44 4.096-4.096 4.096-8.192 4.096-12.288 4.096 4.096 8.192 4.096 8.192 4.096zM122.88 718.336c-20.48 0-36.864 20.48-36.864 36.864 0 20.48 20.48 36.864 40.96 36.864 16.384 0 36.864-20.48 36.864-36.864-4.096-20.48-20.48-36.864-40.96-36.864zM356.352 718.336c-20.48 0-40.96 20.48-40.96 36.864s20.48 36.864 36.864 36.864c16.384 0 36.864-20.48 36.864-36.864 4.096-16.384-12.288-36.864-32.768-36.864zM241.664 718.336c-20.48 0-40.96 20.48-40.96 36.864s20.48 36.864 36.864 36.864c16.384 0 36.864-20.48 36.864-36.864 4.096-20.48-16.384-36.864-32.768-36.864z" />
<glyph unicode="&#xe90a;" glyph-name="provider-staff" d="M962.56 288.256l-57.344 12.288v4.096l32.768 49.152c4.096 4.096 4.096 12.288-4.096 20.48l-32.768 28.672c8.192 32.768 12.288 65.536 12.288 94.208 4.096 114.688-40.96 225.28-126.976 307.2-167.936 172.032-446.464 176.128-618.496 4.096s-176.128-446.464-4.096-618.496c81.92-86.016 192.512-135.168 315.392-135.168v0c32.768 0 65.536 4.096 94.208 12.288l32.768-32.768c4.096-4.096 12.288-4.096 20.48-4.096l49.152 32.768h4.096l12.288-57.344c4.096-8.192 8.192-12.288 16.384-12.288h81.92c8.192 0 12.288 4.096 16.384 12.288l12.288 57.344h4.096l49.152-32.768c4.096-4.096 12.288-4.096 20.48 4.096l57.344 57.344c4.096 4.096 4.096 12.288 4.096 20.48l-32.768 49.152v4.096l57.344 12.288c8.192 4.096 12.288 8.192 12.288 16.384v81.92c-16.384 4.096-20.48 8.192-28.672 12.288zM135.168 267.776c-45.056 65.536-69.632 147.456-69.632 229.376 0 225.28 184.32 405.504 405.504 405.504 110.592 0 217.088-40.96 290.816-122.88 77.824-77.824 118.784-180.224 114.688-286.72 0-24.576-4.096-45.056-4.096-69.632-4.096 4.096-12.288 4.096-16.384 0l-49.152-32.768h-4.096l-12.288 57.344c-4.096 8.192-8.192 12.288-16.384 12.288h-81.92c-4.096 0-4.096 0-4.096 0-20.48 16.384-40.96 28.672-65.536 40.96 73.728 86.016 61.44 212.992-24.576 286.72s-217.088 61.44-286.72-24.576c-65.536-77.824-65.536-188.416 0-262.144-86.016-40.96-155.648-126.976-176.128-233.472zM475.136 468.48c-94.208 0-172.032 77.824-172.032 172.032s77.824 172.032 172.032 172.032 172.032-77.824 172.032-172.032-77.824-172.032-172.032-172.032zM544.768 116.224c-4.096-4.096-4.096-12.288 0-20.48-24.576-4.096-45.056-4.096-69.632-4.096v0c-110.592 0-212.992 40.96-286.72 118.784-8.192 8.192-16.384 16.384-24.576 28.672 12.288 110.592 81.92 200.704 180.224 249.856 77.824-65.536 188.416-65.536 262.144 0 28.672-12.288 49.152-28.672 73.728-49.152l-8.192-36.864h-4.096l-49.152 32.768c-4.096 4.096-12.288 4.096-20.48-4.096l-57.344-57.344c-4.096-4.096-4.096-12.288-4.096-20.48l32.768-49.152-57.344-12.288c-8.192 0-12.288-8.192-12.288-16.384v-81.92c0-8.192 4.096-12.288 12.288-16.384l57.344-12.288v-4.096l-24.576-45.056zM946.176 202.24l-49.152-12.288c-4.096 0-12.288-4.096-12.288-12.288-4.096-4.096-4.096-12.288-4.096-16.384-4.096-4.096-4.096-12.288 0-16.384l28.672-40.96-40.96-40.96-40.96 28.672c-4.096 4.096-12.288 4.096-16.384 0s-12.288-4.096-16.384-4.096c-4.096-4.096-8.192-4.096-12.288-12.288l-12.288-49.152h-57.344l-12.288 49.152c0 4.096-4.096 12.288-12.288 12.288-4.096 4.096-12.288 4.096-16.384 4.096-4.096 4.096-12.288 4.096-16.384 0l-40.96-28.672-40.96 40.96 28.672 40.96c4.096 4.096 4.096 12.288 0 16.384s-4.096 12.288-4.096 16.384c-4.096 4.096-4.096 8.192-12.288 12.288l-49.152 12.288v57.344l49.152 12.288c4.096 0 12.288 4.096 12.288 12.288 4.096 4.096 4.096 12.288 4.096 16.384 4.096 4.096 4.096 12.288 0 16.384l-28.672 40.96 40.96 40.96 40.96-28.672c4.096-4.096 12.288-4.096 16.384 0s12.288 4.096 16.384 4.096c4.096 4.096 8.192 4.096 12.288 12.288l12.288 49.152 4.096 4.096h57.344l12.288-49.152c0-4.096 4.096-12.288 12.288-12.288 4.096-4.096 12.288-4.096 16.384-4.096 4.096-4.096 12.288-4.096 16.384 0l40.96 28.672 40.96-40.96-28.672-40.96c-4.096-4.096-4.096-12.288 0-16.384s4.096-12.288 4.096-16.384c4.096-4.096 4.096-8.192 12.288-12.288l49.152-12.288-4.096-61.44zM782.336-10.752h-81.92c-12.288 0-20.48 8.192-20.48 16.384l-12.288 49.152-40.96-28.672c-8.192-4.096-20.48-4.096-28.672 4.096l-32.768 32.768c-32.768-8.192-61.44-12.288-94.208-12.288-118.784 0-233.472 49.152-315.392 135.168-167.936 176.128-167.936 458.752 8.192 630.784 81.92 81.92 192.512 126.976 311.296 126.976s233.472-49.152 315.392-135.168 126.976-192.512 126.976-311.296c0-32.768-4.096-61.44-12.288-94.208l32.768-32.768c8.192-8.192 8.192-20.48 4.096-28.672l-28.672-40.96 49.152-12.288c12.288-4.096 20.48-12.288 20.48-20.48v-81.92c0-12.288-8.192-20.48-20.48-20.48l-49.152-12.288 28.672-40.96c4.096-8.192 4.096-20.48-4.096-28.672l-57.344-57.344c-4.096-4.096-12.288-4.096-16.384-4.096v0c-4.096 0-8.192 0-12.288 4.096l-40.96 28.672-12.288-49.152c4.096-8.192-8.192-16.384-16.384-16.384zM671.744 71.168l8.192-4.096 12.288-57.344c0-4.096 4.096-8.192 12.288-8.192h81.92c4.096 0 8.192 4.096 12.288 8.192l12.288 57.344 8.192 4.096 49.152-32.768c4.096 0 4.096-4.096 4.096-4.096v0c4.096 0 4.096 0 8.192 4.096l57.344 57.344c4.096 4.096 4.096 8.192 4.096 12.288l-32.768 49.152 4.096 8.192 57.344 12.288c4.096 0 8.192 4.096 8.192 12.288v81.92c0 4.096-4.096 8.192-8.192 12.288l-57.344 12.288-8.192 8.192v4.096l32.768 49.152c4.096 4.096 4.096 8.192-4.096 12.288l-36.864 36.864v4.096c8.192 28.672 12.288 61.44 12.288 94.208 4.096 114.688-40.96 221.184-122.88 303.104s-192.512 131.072-307.2 131.072c-114.688 0-221.184-40.96-303.104-122.88-172.032-172.032-176.128-446.464-8.192-614.4 81.92-81.92 192.512-131.072 307.2-131.072 32.768 0 65.536 4.096 94.208 12.288h4.096l36.864-36.864c4.096-4.096 8.192-4.096 12.288 0l49.152 24.576zM774.144 22.016h-65.536l-12.288 57.344c0 4.096-4.096 4.096-4.096 8.192-4.096 4.096-12.288 4.096-16.384 8.192s-8.192 0-12.288 0l-49.152-32.768-49.152 49.152 32.768 49.152c4.096 4.096 4.096 4.096 0 12.288-4.096 4.096-4.096 12.288-8.192 16.384 0 4.096-4.096 4.096-8.192 4.096l-57.344 12.288v65.536l57.344 12.288c4.096 0 4.096 4.096 8.192 4.096 4.096 4.096 4.096 12.288 8.192 16.384s4.096 8.192 0 12.288l-32.768 49.152 49.152 49.152 49.152-32.768c4.096-4.096 4.096-4.096 12.288 0 4.096 4.096 12.288 4.096 16.384 8.192 4.096 0 4.096 4.096 4.096 8.192l12.288 49.152v4.096l4.096 4.096h65.536l12.288-57.344c0-4.096 4.096-4.096 4.096-8.192 4.096-4.096 12.288-4.096 16.384-8.192s8.192 0 12.288 0l49.152 32.768 49.152-49.152-32.768-49.152c-4.096-4.096-4.096-4.096 0-12.288 4.096-4.096 4.096-12.288 8.192-16.384 0-4.096 4.096-4.096 8.192-4.096l57.344-12.288v-65.536l-57.344-12.288c-4.096 0-4.096-4.096-8.192-4.096-4.096-4.096-4.096-12.288-8.192-16.384s-4.096-4.096 0-12.288l32.768-49.152-49.152-49.152-53.248 32.768c-4.096 4.096-4.096 4.096-12.288 0-4.096-4.096-12.288-4.096-16.384-8.192-4.096 0-4.096-4.096-4.096-8.192l-12.288-57.344zM716.8 34.304h49.152l8.192 49.152c4.096 8.192 8.192 12.288 12.288 16.384s12.288 4.096 16.384 4.096c8.192 4.096 16.384 4.096 20.48-4.096l40.96-28.672 32.768 32.768-28.672 40.96c-4.096 4.096-4.096 12.288-4.096 20.48 4.096 4.096 4.096 12.288 4.096 16.384 4.096 8.192 8.192 12.288 16.384 12.288l49.152 12.288v49.152l-45.056 8.192c-8.192 4.096-12.288 8.192-16.384 12.288s-4.096 12.288-4.096 16.384c-4.096 8.192-4.096 16.384 4.096 20.48l28.672 40.96-36.864 32.768-40.96-28.672c-4.096-4.096-16.384-4.096-20.48 0s-12.288 4.096-16.384 4.096c-8.192 4.096-12.288 8.192-12.288 16.384l-8.192 49.152h-49.152l-8.192-49.152c-4.096-8.192-4.096-12.288-12.288-16.384-4.096-4.096-12.288-4.096-16.384-4.096-4.096-4.096-16.384-4.096-20.48 0l-40.96 28.672-32.768-32.768 28.672-40.96c4.096-4.096 4.096-12.288 4.096-20.48-4.096-4.096-4.096-12.288-4.096-16.384-4.096-8.192-8.192-12.288-16.384-12.288l-49.152-12.288v-49.152l49.152-12.288c8.192-4.096 12.288-4.096 16.384-12.288 4.096-4.096 4.096-12.288 4.096-16.384 4.096-8.192 4.096-16.384-4.096-20.48l-28.672-40.96 32.768-32.768 40.96 28.672c4.096 4.096 16.384 4.096 20.48 0s12.288-4.096 16.384-4.096c8.192-4.096 12.288-8.192 12.288-16.384l8.192-40.96zM475.136 87.552c-110.592 0-217.088 45.056-294.912 118.784-8.192 8.192-16.384 16.384-24.576 24.576l-4.096 4.096v4.096c12.288 110.592 81.92 208.896 180.224 253.952l4.096 4.096 4.096-4.096c32.768-28.672 81.92-49.152 126.976-49.152 49.152 0 94.208 16.384 126.976 49.152l4.096 4.096 4.096-4.096c28.672-12.288 53.248-28.672 73.728-49.152l4.096-4.096-8.192-40.96-8.192-4.096-49.152 32.768c-4.096 4.096-8.192 4.096-12.288 0l-57.344-57.344c-4.096-4.096-4.096-8.192 0-12.288l28.672-53.248-4.096-8.192-57.344-12.288c-4.096 0-8.192-4.096-8.192-12.288v-81.92c0-4.096 4.096-8.192 8.192-12.288l57.344-12.288 4.096-8.192-32.768-49.152c-4.096-4.096-4.096-8.192 0-12.288l4.096-8.192-8.192-4.096c-12.288 4.096-36.864 4.096-61.44 4.096zM172.032 239.104c4.096-8.192 12.288-16.384 20.48-24.576 73.728-73.728 180.224-118.784 282.624-118.784 20.48 0 40.96 4.096 61.44 4.096 0 4.096 0 12.288 4.096 16.384l28.672 40.96-49.152 12.288c-12.288 4.096-20.48 12.288-20.48 20.48v81.92c0 12.288 8.192 20.48 20.48 20.48l49.152 12.288-28.672 40.96c-4.096 8.192-4.096 20.48 4.096 28.672l57.344 57.344c8.192 8.192 20.48 8.192 28.672 4.096l40.96-28.672 4.096 28.672c-20.48 16.384-40.96 32.768-65.536 40.96-36.864-32.768-86.016-49.152-135.168-49.152s-94.208 16.384-135.168 49.152c-90.112-45.056-159.744-135.168-167.936-237.568zM139.264 255.488l-8.192 12.288c-45.056 69.632-73.728 147.456-73.728 233.472 0 225.28 188.416 409.6 413.696 409.6h4.096c110.592 0 217.088-45.056 294.912-122.88s118.784-180.224 118.784-290.816c0-24.576-4.096-49.152-8.192-69.632l-4.096-8.192-8.192 8.192c-4.096 4.096-8.192 4.096-12.288 0l-49.152-32.768-8.192 4.096v4.096l-12.288 57.344c0 4.096-4.096 8.192-12.288 8.192h-81.92c-4.096 0-4.096 0-4.096 0v0c-20.48 16.384-40.96 28.672-65.536 40.96l-4.096 4.096 4.096 4.096c69.632 81.92 57.344 208.896-24.576 278.528-32.768 28.672-81.92 49.152-126.976 49.152-57.344 0-114.688-28.672-151.552-69.632-61.44-73.728-61.44-180.224 0-253.952l4.096-4.096-4.096-4.096c-94.208-49.152-155.648-135.168-180.224-233.472v-24.576zM475.136 906.752l-4.096-4.096c-221.184 0-401.408-180.224-401.408-401.408 0-77.824 20.48-147.456 61.44-212.992 24.576 94.208 86.016 180.224 176.128 225.28-57.344 77.824-57.344 188.416 8.192 262.144 40.96 49.152 98.304 73.728 159.744 73.728 49.152 0 98.304-20.48 135.168-49.152 86.016-73.728 98.304-200.704 28.672-290.816 20.48-12.288 40.96-24.576 57.344-36.864 0 0 4.096 0 4.096 0h81.92c12.288 0 20.48-8.192 20.48-16.384l12.288-49.152 40.96 28.672c4.096 4.096 12.288 4.096 16.384 4.096 4.096 20.48 4.096 40.96 4.096 61.44 4.096 106.496-40.96 204.8-114.688 282.624s-180.224 118.784-286.72 118.784v4.096zM475.136 460.288c-98.304 0-180.224 81.92-180.224 180.224s81.92 180.224 180.224 180.224 180.224-81.92 180.224-180.224-81.92-180.224-180.224-180.224zM475.136 804.352c-90.112 0-163.84-73.728-163.84-163.84s73.728-163.84 163.84-163.84c90.112 0 163.84 73.728 163.84 163.84 4.096 90.112-69.632 163.84-163.84 163.84zM741.376 329.216c-57.344 0-102.4-45.056-102.4-102.4s45.056-102.4 102.4-102.4c49.152 0 94.208 36.864 102.4 86.016 0 4.096 0 12.288 0 16.384 0 57.344-49.152 102.4-102.4 102.4zM741.376 153.088c-40.96 0-77.824 32.768-77.824 77.824 0 40.96 32.768 77.824 77.824 77.824s77.824-32.768 77.824-77.824c0-45.056-36.864-77.824-77.824-77.824zM741.376 124.416c-57.344 0-106.496 49.152-106.496 106.496s49.152 106.496 106.496 106.496 106.496-49.152 106.496-106.496c0-4.096 0-12.288 0-16.384-8.192-53.248-53.248-90.112-106.496-90.112zM741.376 325.12c-53.248 0-94.208-40.96-94.208-94.208s40.96-94.208 94.208-94.208c49.152 0 86.016 32.768 94.208 81.92 0 4.096 0 12.288 0 12.288 0 53.248-40.96 94.208-94.208 94.208zM741.376 148.992c-45.056 0-81.92 36.864-81.92 81.92s36.864 81.92 81.92 81.92 81.92-36.864 81.92-81.92-36.864-81.92-81.92-81.92zM741.376 300.544c-40.96 0-73.728-32.768-73.728-69.632s32.768-69.632 73.728-69.632 73.728 32.768 73.728 69.632c-4.096 36.864-32.768 69.632-73.728 69.632z" />
<glyph unicode="&#xe90b;" glyph-name="website" d="M507.904 935.424c-16.384 0-36.864 0-49.152-4.096-16.384-4.096-32.768-4.096-45.056-8.192-4.096 0-4.096 0-8.192-4.096-90.112-20.48-172.032-65.536-233.472-126.976-8.192-8.192-12.288-16.384-20.48-20.48-172.032-196.608-151.552-495.616 45.056-667.648 188.416-163.84 475.136-151.552 647.168 24.576 4.096 4.096 12.288 12.288 20.48 20.48 77.824 81.92 118.784 196.608 118.784 307.2-4.096 266.24-212.992 479.232-475.136 479.232zM188.416 767.488c4.096 4.096 4.096 4.096 8.192 8.192 4.096 0 4.096 4.096 8.192 8.192s4.096 4.096 8.192 8.192c4.096 0 4.096 4.096 8.192 8.192s4.096 4.096 8.192 4.096c4.096 4.096 4.096 4.096 12.288 8.192 0 4.096 4.096 4.096 8.192 4.096 4.096 4.096 4.096 4.096 12.288 8.192 4.096 4.096 4.096 4.096 8.192 4.096 0 4.096 4.096 8.192 8.192 8.192 0 0 4.096 0 8.192 4.096 0 4.096 8.192 4.096 8.192 4.096 4.096 4.096 4.096 4.096 8.192 4.096 4.096 4.096 8.192 4.096 12.288 4.096 4.096 8.192 4.096 8.192 12.288 8.192 0 4.096 8.192 4.096 8.192 8.192 4.096 0 4.096 4.096 12.288 4.096 4.096 0 8.192 4.096 12.288 4.096 0-4.096 4.096 0 8.192 0s8.192 0 12.288 0c4.096 0 4.096 4.096 12.288 4.096h4.096c-45.056-45.056-81.92-102.4-102.4-163.84-36.864 16.384-73.728 28.672-106.496 49.152v0zM167.936 742.912c36.864-20.48 77.824-36.864 118.784-49.152-20.48-69.632-28.672-143.36-28.672-217.088h-192.512c4.096 98.304 36.864 192.512 102.4 266.24zM167.936 177.664c-61.44 73.728-98.304 167.936-102.4 266.24h188.416c0-73.728 12.288-147.456 32.768-217.088-40.96-12.288-81.92-28.672-118.784-49.152zM393.216 34.304c-4.096 0-4.096 4.096-12.288 4.096s-8.192 0-12.288 0-4.096 4.096-12.288 4.096-8.192 4.096-12.288 4.096-4.096 4.096-12.288 4.096c4.096 4.096-4.096 4.096-4.096 4.096-4.096 0-4.096 4.096-12.288 4.096-4.096 4.096-8.192 4.096-12.288 4.096-4.096 4.096-4.096 4.096-8.192 4.096 0 8.192-8.192 8.192-8.192 12.288-4.096 4.096-4.096 4.096-8.192 4.096-4.096 4.096-8.192 4.096-12.288 4.096-4.096 4.096-4.096 4.096-8.192 4.096 0 4.096-4.096 8.192-8.192 8.192-4.096 4.096-4.096 4.096-8.192 4.096-4.096 4.096-4.096 4.096-12.288 8.192-4.096 4.096-4.096 4.096-8.192 4.096-4.096 4.096-4.096 4.096-8.192 8.192s-4.096 4.096-8.192 8.192c-4.096 8.192-4.096 8.192-8.192 12.288s-4.096 4.096-8.192 8.192v0c36.864 20.48 69.632 32.768 106.496 40.96 20.48-61.44 53.248-118.784 102.4-163.84 0 0 0 0-4.096 4.096zM491.52 17.92c-65.536 12.288-126.976 81.92-163.84 184.32 53.248 12.288 110.592 20.48 163.84 20.48v-204.8zM491.52 255.488c-57.344 0-118.784-8.192-176.128-20.48-16.384 65.536-28.672 139.264-28.672 208.896h204.8v-188.416zM491.52 476.672h-204.8c0 73.728 8.192 143.36 32.768 212.992 53.248-16.384 114.688-20.48 172.032-20.48v-192.512zM491.52 697.856c-57.344 0-110.592 8.192-163.84 20.48 36.864 106.496 98.304 176.128 163.84 184.32v-204.8zM847.872 742.912c61.44-73.728 98.304-167.936 102.4-266.24h-188.416c0 73.728-12.288 147.456-32.768 217.088 40.96 12.288 77.824 28.672 118.784 49.152zM622.592 886.272c4.096 0 4.096-4.096 12.288-4.096s8.192-4.096 12.288-4.096c0 4.096 4.096 0 8.192 0s8.192-4.096 12.288-4.096c4.096 0 4.096-4.096 12.288-4.096 4.096-4.096 8.192-4.096 12.288-4.096 4.096-4.096 4.096-4.096 12.288-4.096 4.096-4.096 8.192-4.096 12.288-4.096 4.096-4.096 4.096-4.096 8.192-4.096 4.096-4.096 8.192-4.096 12.288-4.096-8.192-8.192-4.096-8.192 0-12.288s8.192-4.096 12.288-4.096c4.096-4.096 4.096-4.096 8.192-4.096s4.096-4.096 12.288-8.192c4.096-4.096 4.096-4.096 8.192-4.096 0-4.096 0-8.192 8.192-8.192 4.096-4.096 4.096-4.096 8.192-4.096 4.096-4.096 4.096-4.096 8.192-8.192s4.096-4.096 8.192-8.192 4.096-4.096 8.192-8.192 4.096-4.096 8.192-8.192v0c-36.864-20.48-69.632-32.768-106.496-40.96-20.48 61.44-53.248 118.784-102.4 163.84 0-8.192 4.096-8.192 4.096-8.192zM520.192 898.56c65.536-12.288 126.976-81.92 163.84-184.32-53.248-12.288-110.592-20.48-163.84-20.48v204.8zM520.192 669.184c57.344 0 118.784 8.192 176.128 20.48 20.48-69.632 28.672-139.264 32.768-212.992h-204.8v192.512h-4.096zM520.192 443.904h204.8c0-73.728-12.288-143.36-32.768-212.992v0c-57.344 12.288-114.688 20.48-176.128 20.48v192.512h4.096zM520.192 17.92v204.8c57.344 0 110.592-8.192 163.84-20.48-32.768-102.4-94.208-172.032-163.84-184.32zM823.296 153.088c-4.096-4.096-4.096-4.096-8.192-8.192s-4.096-4.096-8.192-8.192-4.096-4.096-8.192-8.192-4.096-4.096-8.192-8.192-4.096-4.096-8.192-4.096c-4.096-4.096-4.096-4.096-12.288-8.192-4.096-4.096-4.096-4.096-8.192-4.096-4.096-4.096-4.096-4.096-12.288-8.192-4.096-4.096-4.096-4.096-8.192-4.096-4.096-4.096-4.096-4.096-12.288-4.096-4.096-4.096-4.096-4.096-8.192-4.096-4.096-4.096-8.192-4.096-12.288-4.096-4.096-4.096-4.096-4.096-8.192-4.096-4.096-4.096-8.192-4.096-12.288-4.096 8.192-12.288 4.096-12.288 0-16.384s-8.192-4.096-12.288-4.096c-4.096 0-4.096-4.096-12.288-4.096-4.096-4.096-8.192-4.096-12.288-4.096s-4.096-4.096-12.288-4.096-8.192-4.096-12.288-4.096-4.096-4.096-12.288-4.096h-4.096c49.152 45.056 81.92 102.4 102.4 163.84 40.96-8.192 81.92-24.576 110.592-40.96v0zM847.872 177.664c-36.864 20.48-77.824 36.864-118.784 49.152 20.48 69.632 32.768 143.36 32.768 217.088h188.416c-4.096-94.208-40.96-188.416-102.4-266.24z" />
<glyph unicode="&#xe90c;" glyph-name="screen-share" d="M107.52 345.6h158.72v25.6h-158.72v51.2h158.72v30.72h-158.72v337.92h578.56v-353.28c0-5.12-5.12-15.36-15.36-15.36h-256l30.72 30.72-15.36 25.6-66.56-66.56 66.56-66.56 20.48 20.48-30.72 30.72h256c20.48 0 40.96 15.36 40.96 40.96v353.28c0 15.36-10.24 25.6-25.6 25.6h-583.68c-15.36 0-25.6-10.24-25.6-25.6v-419.84c0-15.36 10.24-25.6 25.6-25.6zM896 637.44h-158.72v-25.6h158.72v-343.040h-578.56v327.68c0 5.12 5.12 15.36 15.36 15.36h256l-30.72-30.72 20.48-20.48 61.44 61.44-61.44 61.44-20.48-20.48 30.72-30.72h-256c-25.6 5.12-40.96-15.36-40.96-35.84v-409.6c0-15.36 10.24-25.6 25.6-25.6h209.92v-51.2h-51.2v-25.6h261.12v25.6h-51.2v51.2h209.92c15.36 0 25.6 10.24 25.6 25.6v419.84c0 15.36-10.24 30.72-25.6 30.72zM660.48 110.080h-107.52v51.2h107.52v-51.2zM896 186.88h-578.56v51.2h578.56v-51.2zM486.4 529.92h25.6v-25.6h-25.6v25.6zM542.72 529.92h25.6v-25.6h-25.6v25.6zM435.2 529.92h25.6v-25.6h-25.6v25.6z" />
<glyph unicode="&#xe90d;" glyph-name="info" d="M501.76 949.76c-276.48 0-501.76-225.28-501.76-501.76s225.28-501.76 501.76-501.76c276.48 0 501.76 225.28 501.76 501.76s-225.28 501.76-501.76 501.76zM501.76 38.4c-225.28 0-409.6 184.32-409.6 409.6s184.32 409.6 409.6 409.6c225.28 0 409.6-184.32 409.6-409.6 5.12-225.28-179.2-409.6-409.6-409.6zM501.76 734.72c-35.84 0-61.44-30.72-61.44-61.44 0-35.84 30.72-61.44 61.44-61.44s61.44 30.72 61.44 61.44c0 35.84-25.6 61.44-61.44 61.44zM501.76 524.8c-25.6 0-46.080-20.48-46.080-46.080v-271.36c0-25.6 20.48-46.080 46.080-46.080s46.080 20.48 46.080 46.080v271.36c0 25.6-20.48 46.080-46.080 46.080z" />
<glyph unicode="&#xe90e;" glyph-name="magnifier" d="M952.32 104.96l-199.68 199.68c40.96 61.44 66.56 138.24 66.56 215.040 0 215.040-174.080 394.24-394.24 394.24s-394.24-174.080-394.24-394.24 174.080-394.24 394.24-394.24c81.92 0 153.6 25.6 215.040 66.56l199.68-199.68c30.72-30.72 81.92-30.72 112.64 0 30.72 35.84 30.72 81.92 0 112.64zM148.48 519.68c0 148.48 122.88 276.48 276.48 276.48s276.48-122.88 276.48-276.48-122.88-276.48-276.48-276.48-276.48 128-276.48 276.48z" />
<glyph unicode="&#xe90f;" glyph-name="magnifier-plus" d="M952.32 104.96l-199.68 199.68c40.96 61.44 66.56 138.24 66.56 215.040 0 215.040-174.080 394.24-394.24 394.24s-394.24-174.080-394.24-394.24 174.080-394.24 394.24-394.24c81.92 0 153.6 25.6 215.040 66.56l199.68-199.68c30.72-30.72 81.92-30.72 112.64 0 30.72 35.84 30.72 81.92 0 112.64zM148.48 519.68c0 148.48 122.88 276.48 276.48 276.48s276.48-122.88 276.48-276.48-122.88-276.48-276.48-276.48-276.48 128-276.48 276.48zM419.84 345.6c15.36 0 25.6 10.24 25.6 25.6v307.2c0 15.36-10.24 25.6-25.6 25.6s-25.6-10.24-25.6-25.6v-307.2c-5.12-10.24 10.24-25.6 25.6-25.6zM599.040 524.8c0 15.36-10.24 25.6-25.6 25.6h-307.2c-15.36 0-25.6-10.24-25.6-25.6s10.24-25.6 25.6-25.6h307.2c10.24-5.12 25.6 10.24 25.6 25.6z" />
<glyph unicode="&#xe910;" glyph-name="video-call-fill" d="M568.32 657.92h-455.68c-40.96 0-76.8-35.84-76.8-76.8v-250.88c0-40.96 35.84-76.8 76.8-76.8h455.68c40.96 0 76.8 35.84 76.8 76.8v256c0 40.96-35.84 71.68-76.8 71.68zM936.96 642.56l-235.52-102.4v-163.84l235.52-97.28c20.48-10.24 35.84 0 35.84 20.48v322.56c0 20.48-15.36 30.72-35.84 20.48z" />
<glyph unicode="&#xe911;" glyph-name="download" d="M933.647 598.588h-240.941v361.412h-361.412v-361.412h-240.941l421.647-421.647 421.647 421.647zM90.353 56.471v-120.471h843.294v120.471h-843.294z" />
<glyph unicode="&#xe912;" glyph-name="notification-bell" d="M876.544 38.4h-753.664c-16.384 0-32.768 8.192-40.96 24.576s-8.192 32.768 0 49.152l65.536 114.688c28.672 49.152 45.056 102.4 45.056 159.744v98.304c0 126.976 77.824 241.664 196.608 286.72v49.152c0 61.44 49.152 110.592 110.592 110.592s110.592-49.152 110.592-110.592v-49.152c118.784-45.056 196.608-159.744 196.608-286.72v-98.304c0-53.248 16.384-110.592 45.056-159.744l69.632-114.688c8.192-16.384 8.192-32.768 0-49.152s-24.576-24.576-45.056-24.576zM139.264 95.744h720.896l-61.44 98.304c-32.768 57.344-53.248 122.88-53.248 188.416v98.304c0 110.592-73.728 204.8-176.128 237.568-12.288 4.096-20.48 16.384-20.48 28.672v73.728c0 28.672-20.48 49.152-49.152 49.152s-49.152-20.48-49.152-49.152v-73.728c0-12.288-8.192-24.576-20.48-28.672-102.4-32.768-176.128-131.072-176.128-237.568v-94.208c0-65.536-16.384-131.072-53.248-188.416l-61.44-102.4zM499.712-64c-73.728 0-143.36 40.96-172.032 110.592-4.096 8.192-4.096 20.48 4.096 28.672s16.384 16.384 24.576 16.384h294.912c8.192 0 20.48-4.096 24.576-16.384 4.096-8.192 4.096-20.48 4.096-28.672-36.864-65.536-106.496-110.592-180.224-110.592zM413.696 30.208c24.576-20.48 53.248-32.768 86.016-32.768s65.536 12.288 86.016 32.768h-172.032z" />
<glyph unicode="&#xe913;" glyph-name="burger-menu" d="M153.6 668.16h773.12c25.6 0 46.080 20.48 46.080 46.080s-20.48 46.080-46.080 46.080h-773.12c-25.6 0-46.080-20.48-46.080-46.080s20.48-46.080 46.080-46.080zM926.72 504.32h-773.12c-25.6 0-46.080-20.48-46.080-46.080s20.48-46.080 46.080-46.080h773.12c25.6 0 46.080 20.48 46.080 46.080s-20.48 46.080-46.080 46.080zM926.72 248.32h-773.12c-25.6 0-46.080-20.48-46.080-46.080s20.48-46.080 46.080-46.080h773.12c25.6 0 46.080 20.48 46.080 46.080 0 20.48-20.48 46.080-46.080 46.080z" />
<glyph unicode="&#xe914;" glyph-name="insurance" d="M448 10.24c-17.92 5.12-33.28 7.68-48.64 17.92-33.28 23.040-53.76 53.76-53.76 94.72 0 28.16 20.48 51.2 46.080 51.2 25.6 2.56 48.64-17.92 51.2-46.080 0-2.56 0-7.68 2.56-10.24 2.56-5.12 7.68-10.24 15.36-10.24s12.8 5.12 15.36 10.24c0 2.56 0 7.68 0 10.24 0 38.4 0 79.36 0 117.76 0 17.92 5.12 23.040 23.040 23.040 2.56 0 5.12 0 10.24 0 0 2.56 0 7.68 0 10.24 0 48.64 0 99.84 0 148.48 0 20.48-7.68 35.84-25.6 43.52-40.96 28.16-81.92 28.16-122.88 2.56-12.8-7.68-20.48-17.92-20.48-33.28 0-7.68-7.68-15.36-15.36-15.36s-15.36 5.12-15.36 12.8c-2.56 23.040-15.36 33.28-33.28 40.96-43.52 20.48-84.48 17.92-122.88-7.68-7.68-5.12-15.36-12.8-15.36-23.040 0-12.8-5.12-17.92-12.8-20.48-10.24-2.56-15.36 2.56-20.48 10.24 0 5.12 0 10.24 0 15.36 2.56 5.12 2.56 12.8 5.12 17.92 15.36 94.72 61.44 168.96 135.68 227.84 66.56 51.2 145.92 79.36 227.84 87.040 12.8 0 23.040 2.56 35.84 2.56 0 15.36 0 28.16 0 43.52 0 10.24 2.56 17.92 12.8 23.040 2.56 0 7.68 0 10.24 0 10.24-5.12 12.8-12.8 12.8-23.040 0-15.36 0-28.16 0-40.96 28.16-5.12 56.32-5.12 81.92-10.24 74.24-15.36 143.36-46.080 202.24-97.28s97.28-117.76 115.2-194.56c2.56-12.8 5.12-23.040 7.68-35.84 0-5.12 0-10.24 0-15.36 0 0-2.56-2.56-2.56-2.56-5.12-5.12-10.24-7.68-17.92-7.68-7.68 2.56-12.8 7.68-12.8 12.8 0 20.48-12.8 30.72-30.72 38.4-43.52 20.48-84.48 20.48-122.88-5.12-12.8-7.68-17.92-17.92-20.48-33.28 0-7.68-7.68-15.36-15.36-15.36s-15.36 5.12-15.36 12.8c0 17.92-12.8 28.16-25.6 38.4-35.84 20.48-92.16 20.48-125.44-5.12-12.8-7.68-17.92-20.48-17.92-35.84 0-51.2 0-102.4 0-153.6 0-2.56 0-5.12 0-10.24 5.12 0 10.24 0 15.36 0 10.24 0 17.92-7.68 17.92-17.92 0-46.080 0-92.16 0-138.24-2.56-53.76-43.52-97.28-97.28-104.96-2.56 0-2.56 0-5.12-2.56-10.24 2.56-20.48 2.56-28.16 2.56zM509.44 757.76c-12.8-5.12-23.040-7.68-33.28-12.8-33.28-15.36-56.32-40.96-76.8-71.68-23.040-35.84-38.4-76.8-46.080-120.32-2.56-15.36-5.12-33.28-10.24-51.2 28.16 15.36 53.76 23.040 84.48 23.040 28.16 0 56.32-7.68 81.92-25.6 0 5.12 0 7.68 0 10.24 0 20.48 0 40.96 0 61.44 0 10.24 5.12 17.92 15.36 17.92 7.68 0 15.36-5.12 17.92-12.8 0-2.56 0-7.68 0-10.24 0-20.48 0-40.96 0-61.44 0-2.56 0-5.12 0-5.12 53.76 30.72 110.080 30.72 163.84 2.56 0 2.56 0 2.56 0 2.56-5.12 38.4-12.8 76.8-28.16 112.64-15.36 40.96-38.4 79.36-74.24 107.52-17.92 15.36-38.4 23.040-61.44 28.16 0-2.56 0-7.68 0-10.24 0-12.8 0-25.6 0-38.4 0-7.68-5.12-12.8-12.8-15.36s-12.8 0-17.92 5.12c-2.56 2.56-2.56 7.68-2.56 12.8 0 17.92 0 33.28 0 51.2zM414.72 744.96c-61.44-15.36-115.2-40.96-163.84-81.92s-81.92-89.6-99.84-151.040c56.32 23.040 107.52 20.48 158.72-10.24 12.8 87.040 35.84 174.080 104.96 243.2zM901.12 509.44c-35.84 122.88-148.48 209.92-261.12 232.96 66.56-66.56 89.6-153.6 102.4-243.2 51.2 33.28 102.4 33.28 158.72 10.24zM509.44 240.64c0-2.56 0-7.68 0-10.24 0-35.84 0-69.12 0-104.96 0-23.040-12.8-40.96-33.28-48.64s-43.52 0-53.76 17.92c-5.12 7.68-7.68 17.92-10.24 28.16s-7.68 17.92-17.92 15.36c-10.24 0-15.36-7.68-15.36-17.92 0 0 0-2.56 0-2.56 2.56-40.96 38.4-74.24 76.8-76.8 46.080-2.56 87.040 35.84 87.040 81.92 0 35.84 0 74.24 0 110.080 0 2.56 0 2.56 0 5.12-10.24 2.56-20.48 2.56-33.28 2.56z" />
<glyph unicode="&#xe915;" glyph-name="Block-Calander-Icon" d="M826.982 344.986v446.464c-1.843 3.686-1.843 7.578-5.734 9.421-1.843 1.843-5.734 3.686-9.421 3.686h-66.15v39.731c0 7.578-5.734 13.312-13.312 13.312h-92.774c-7.578 0-13.312-5.734-13.312-13.312v-39.731h-293.069v39.731c0 7.578-5.734 13.312-13.312 13.312h-92.57c-7.578 0-13.312-5.734-13.312-13.312v-39.731h-66.15c-3.686 0-7.578-1.843-9.421-3.686-2.048-1.843-3.891-5.734-3.891-9.421v-683.008c0-7.578 5.734-13.312 13.312-13.312h440.73c32.154-33.997 77.619-56.73 128.614-56.73 96.461 0 172.237 77.619 172.237 174.080 0 53.043-24.576 100.147-62.464 132.506zM652.902 791.45v39.731h66.15v-79.462h-66.15v39.731zM238.592 791.45v39.731h66.15v-79.462h-66.15v39.731zM159.13 778.138h50.995v-39.731c0-7.578 5.734-13.312 13.312-13.312h96.461c7.578 0 13.312 5.734 13.312 13.312v39.731h293.274v-39.731c0-7.578 5.734-13.312 13.312-13.312h96.461c7.578 0 13.312 5.734 13.312 13.312v39.731h53.043v-105.882h-643.482v105.882zM159.13 123.597v520.192h639.59v-279.962c-20.89 11.264-41.574 16.998-66.15 20.89v194.97h-503.398v-387.891h316.006c1.843-24.576 11.264-47.309 22.733-68.198h-408.781zM492.134 218.214v92.57h83.149c-18.842-26.419-30.31-58.573-30.31-92.774h-52.838zM584.909 431.821v-94.618h-92.774v94.618h92.774zM492.134 458.445v92.774h92.774v-92.774h-92.774zM704.102 431.821v-47.309c-33.997-1.843-66.15-15.155-92.774-36.045v83.149h92.774zM611.328 458.445v92.774h92.774v-92.774h-92.774zM463.667 431.821v-92.774h-92.774v92.774h92.774zM371.098 458.445v92.774h92.774v-92.774h-92.774zM465.715 310.784v-92.774h-94.618v92.774h94.618zM251.904 337.408v94.618h92.774v-94.618h-92.774zM344.474 310.784v-92.774h-92.57v92.774h92.57zM251.904 458.445v92.774h92.774v-92.774h-92.774zM571.597 212.48c0 79.462 64.307 143.77 143.77 143.77 33.997 0 64.307-11.264 88.883-30.31l-1.843-1.843-194.765-209.92c-22.733 26.419-36.045 60.416-36.045 98.304zM717.21 66.867c-32.154 0-62.464 11.264-87.040 30.31l194.97 209.92c22.733-24.576 36.045-58.573 36.045-94.618-0.205-81.306-64.512-145.613-143.974-145.613z" />
<glyph unicode="&#xe916;" glyph-name="Today-Icon" d="M883.917 785.306c-0.614 1.024-1.024 2.253-1.229 3.277-1.024 2.867-2.048 5.939-5.53 7.782-3.277 2.867-7.168 4.301-11.469 4.506h-68.198v39.936c0 9.011-6.963 16.589-16.179 16.794h-99.533c-0.205 0-0.205 0-0.41 0-8.806 0-16.179-6.963-16.384-15.974v-40.755h-308.019v39.936c0.205 9.011-6.963 16.589-15.974 16.794h-99.533c-0.205 0-0.205 0-0.41 0-8.806 0-16.179-6.963-16.384-15.974v-40.755h-68.198c-0.205 0-0.205 0-0.41 0-8.806 0-16.179-6.963-16.384-15.974v-729.907c0-4.301 1.638-8.397 4.71-11.469s7.168-4.915 11.469-5.12h711.68c0.205 0 0.205 0 0.41 0 8.806 0 16.179 6.963 16.384 15.974v729.907l-0.41 1.024zM848.896 73.83h-677.683v550.502h677.683v-550.502zM256 744.346v79.872h65.741v-79.872h-65.741zM698.368 744.346v79.872h65.741v-79.872h-65.741zM225.28 716.083c3.072-3.072 7.168-4.915 11.469-5.12 0.205 0 0.614 0 0.819 0h103.014c9.216-0.41 16.589 6.963 16.794 15.974v40.755h308.019v-39.936c-0.205-4.301 1.434-8.397 4.506-11.674 3.072-3.072 7.168-4.915 11.469-5.12 0.205 0 0.614 0 0.819 0h103.014c0.205 0 0.205 0 0.41 0 4.096 0 8.192 1.638 11.264 4.506 3.072 3.072 4.915 7.168 5.12 11.469v40.755h51.405v-108.134h-682.189v108.134h49.562v-39.936c-0.205-4.506 1.434-8.602 4.506-11.674zM454.451 305.254h103.424c18.022 0 32.768 14.746 32.768 32.768v103.424c0 18.022-14.746 32.768-32.768 32.768h-103.424c-18.022 0-32.768-14.746-32.768-32.768v-103.424c0-18.022 14.746-32.768 32.768-32.768zM565.453 338.022c0-4.096-3.482-7.578-7.578-7.578h-103.424c-4.096 0-7.578 3.482-7.578 7.578v103.424c0 4.096 3.482 7.578 7.578 7.578h103.424c4.096 0 7.578-3.482 7.578-7.578v-103.424z" />
<glyph unicode="&#xe917;" glyph-name="stop-sharescreen" d="M184.32 166.4l138.24 138.24h-199.68v394.24h593.92l51.2 51.2h-645.12c-30.72 0-56.32-25.6-56.32-56.32v-476.16c0-30.72 25.6-56.32 56.32-56.32h61.44v5.12zM962.56 847.36c-15.36 15.36-35.84 15.36-56.32 0l-793.6-793.6c-10.24-15.36-10.24-40.96 0-56.32 10.24-5.12 20.48-10.24 30.72-10.24s20.48 5.12 25.6 10.24l168.96 168.96h56.32l-5.12-76.8h-66.56l-25.6-40.96h343.040l-20.48 40.96h-61.44l-10.24 81.92h271.36c30.72 0 56.32 25.6 56.32 56.32v471.040c0 5.12 0 5.12 0 10.24l87.040 87.040c15.36 10.24 15.36 30.72 0 51.2zM824.32 304.64h-353.28l353.28 348.16v-348.16z" />
<glyph unicode="&#xe918;" glyph-name="sharescreen" d="M414.72 104.96c5.12 30.72 5.12 61.44 10.24 92.16-5.12 0-5.12 0-10.24 0-102.4 0-199.68 0-302.080 0-30.72 0-56.32 20.48-61.44 46.080 0 5.12-5.12 10.24-5.12 15.36 0 179.2 0 358.4 0 542.72 5.12 30.72 30.72 56.32 66.56 61.44 5.12 0 5.12 0 5.12 0 261.12 0 527.36 0 793.6 0 25.6 0 51.2-10.24 61.44-35.84-5.12-10.24 0-20.48 0-30.72 0-179.2 0-358.4 0-542.72 0-35.84-25.6-61.44-61.44-61.44-102.4 0-199.68 0-302.080 0-5.12 0-5.12 0-10.24 0 5.12-30.72 5.12-61.44 10.24-92.16 5.12 0 5.12 0 5.12 0 20.48 0 40.96 0 61.44 0 5.12 0 5.12 0 10.24-5.12 10.24-15.36 15.36-30.72 25.6-46.080-128 0-256 0-389.12 0 0 5.12 0 5.12 5.12 5.12 10.24 15.36 15.36 25.6 20.48 40.96 5.12 5.12 5.12 5.12 10.24 5.12 20.48 0 35.84 0 61.44 0-10.24 5.12-5.12 5.12-5.12 5.12zM916.48 350.72c0 5.12 0 5.12 0 5.12 0 148.48 0 291.84 0 440.32 0 10.24 0 10.24-10.24 10.24-261.12 0-527.36 0-793.6 0-10.24 0-10.24 0-10.24-10.24 0-148.48 0-291.84 0-440.32 0-10.24 0-10.24 10.24-10.24 261.12 0 527.36 0 793.6 0 5.12 5.12 10.24 5.12 10.24 5.12z" />
<glyph unicode="&#xe919;" glyph-name="send" d="M51.2 842.24v-307.2l660.48-87.040-660.48-87.040v-307.2l921.6 394.24z" />
<glyph unicode="&#xe91a;" glyph-name="gear" d="M473.6 934.4c17.92 0 35.84 0 51.2 0 0-2.56 2.56 0 5.12 0 10.24 0 23.040-2.56 33.28-2.56 10.24-2.56 15.36-7.68 17.92-17.92 5.12-35.84 10.24-69.12 12.8-104.96 0-2.56 2.56-5.12 5.12-5.12 23.040-7.68 46.080-15.36 69.12-28.16 2.56-2.56 5.12-2.56 7.68 0 28.16 20.48 53.76 43.52 81.92 64 10.24 7.68 17.92 7.68 28.16 0 33.28-25.6 64-56.32 89.6-89.6 7.68-10.24 7.68-17.92 0-28.16-20.48-28.16-43.52-56.32-64-81.92-2.56-2.56-2.56-5.12 0-7.68 10.24-20.48 20.48-40.96 25.6-64 2.56-10.24 7.68-12.8 15.36-12.8 33.28-2.56 64-7.68 97.28-12.8 10.24 0 15.36-7.68 17.92-15.36 0-7.68 2.56-15.36 2.56-23.040 0-5.12 0-10.24 2.56-12.8 0-20.48 0-38.4 0-58.88-2.56 0 0-2.56 0-2.56 0-10.24-2.56-23.040-2.56-33.28-2.56-10.24-7.68-15.36-17.92-15.36-35.84-5.12-69.12-10.24-104.96-12.8-2.56 0-5.12-2.56-5.12-5.12-7.68-23.040-17.92-48.64-28.16-69.12-2.56-2.56-2.56-5.12 0-7.68 20.48-28.16 43.52-56.32 64-81.92 7.68-10.24 7.68-17.92 0-28.16-25.6-33.28-53.76-61.44-87.040-87.040-12.8-10.24-17.92-10.24-30.72 0-28.16 20.48-53.76 40.96-81.92 64-2.56 2.56-5.12 2.56-7.68 0-20.48-12.8-43.52-20.48-66.56-28.16-5.12-2.56-7.68-2.56-7.68-7.68s0-7.68-2.56-12.8c-5.12-30.72-7.68-58.88-12.8-89.6-2.56-10.24-7.68-15.36-17.92-17.92-7.68 0-15.36-2.56-23.040-2.56-5.12 0-10.24 0-12.8-2.56-17.92 0-35.84 0-51.2 0 0 2.56-2.56 0-5.12 0-12.8 0-23.040 2.56-35.84 2.56-10.24 2.56-15.36 7.68-17.92 17.92-5.12 35.84-10.24 69.12-12.8 104.96 0 2.56-2.56 5.12-5.12 7.68-23.040 7.68-46.080 15.36-69.12 28.16-2.56 2.56-5.12 2.56-7.68 0-25.6-20.48-53.76-40.96-81.92-61.44-12.8-10.24-20.48-10.24-30.72 0-33.28 25.6-61.44 53.76-87.040 87.040-7.68 10.24-7.68 17.92 0 28.16 20.48 28.16 43.52 56.32 64 81.92 2.56 2.56 2.56 5.12 0 7.68-12.8 23.040-23.040 46.080-28.16 69.12 0 2.56-2.56 5.12-5.12 5.12-10.24 0-20.48 2.56-33.28 5.12-25.6 2.56-48.64 5.12-74.24 10.24-10.24 2.56-15.36 7.68-17.92 17.92 0 7.68-2.56 17.92-2.56 25.6 0 5.12 0 10.24-2.56 15.36 0 17.92 0 33.28 0 51.2 2.56 0 0 2.56 0 2.56 0 12.8 2.56 23.040 2.56 33.28 2.56 10.24 7.68 17.92 17.92 17.92 35.84 5.12 69.12 10.24 104.96 12.8 2.56 0 5.12 2.56 5.12 5.12 7.68 23.040 15.36 46.080 28.16 69.12 2.56 2.56 2.56 5.12 0 7.68-20.48 28.16-43.52 53.76-64 81.92-2.56 2.56-2.56 12.8 5.12 20.48 25.6 33.28 53.76 61.44 87.040 87.040 10.24 7.68 17.92 7.68 30.72 0 28.16-20.48 53.76-40.96 81.92-64 2.56-2.56 5.12-2.56 7.68 0 23.040 12.8 43.52 20.48 69.12 28.16 5.12 0 5.12 2.56 5.12 7.68 5.12 35.84 7.68 69.12 12.8 104.96 0 10.24 7.68 15.36 17.92 17.92 7.68 0 17.92 2.56 25.6 2.56 2.56 2.56 7.68 0 12.8 2.56zM499.2 896c-10.24 0-23.040 0-33.28-2.56-5.12 0-10.24 0-12.8-2.56s-2.56-7.68-2.56-12.8c-5.12-30.72-7.68-61.44-12.8-92.16 0-10.24-7.68-15.36-15.36-17.92-30.72-7.68-61.44-20.48-87.040-35.84-10.24-5.12-17.92-5.12-25.6 2.56-25.6 20.48-53.76 40.96-79.36 61.44-2.56 2.56-5.12 2.56-7.68 0-23.040-17.92-40.96-38.4-58.88-58.88-2.56-2.56-2.56-5.12 0-7.68 20.48-25.6 40.96-53.76 61.44-81.92 7.68-10.24 7.68-15.36 2.56-25.6-5.12-7.68-7.68-15.36-12.8-23.040-10.24-20.48-17.92-43.52-23.040-66.56-2.56-10.24-7.68-15.36-17.92-15.36-7.68 0-15.36-2.56-25.6-2.56-25.6-2.56-51.2-7.68-76.8-10.24-2.56 0-5.12-2.56-5.12-5.12-2.56-28.16-2.56-53.76 0-81.92 0-2.56 2.56-5.12 5.12-5.12 33.28-5.12 66.56-7.68 99.84-12.8 10.24-2.56 17.92-5.12 20.48-17.92 7.68-30.72 20.48-58.88 35.84-87.040 7.68-10.24 5.12-17.92-2.56-28.16-20.48-23.040-40.96-48.64-61.44-76.8-2.56-2.56-2.56-5.12 0-7.68 17.92-20.48 38.4-40.96 58.88-58.88 2.56-2.56 5.12-2.56 7.68 0 25.6 20.48 53.76 40.96 79.36 61.44 10.24 7.68 17.92 7.68 28.16 2.56 7.68-5.12 12.8-7.68 20.48-10.24 20.48-10.24 43.52-17.92 66.56-23.040 10.24-2.56 15.36-7.68 17.92-17.92 5.12-33.28 7.68-69.12 12.8-102.4 0-2.56 2.56-5.12 5.12-5.12 10.24 0 17.92 0 28.16-2.56 17.92 0 35.84 0 53.76 2.56 2.56 0 2.56 0 5.12 2.56 5.12 33.28 7.68 69.12 12.8 102.4 2.56 10.24 5.12 17.92 17.92 20.48 30.72 7.68 58.88 20.48 84.48 35.84 10.24 7.68 17.92 5.12 28.16-2.56 25.6-20.48 53.76-40.96 79.36-61.44 2.56-2.56 5.12-2.56 7.68 0 20.48 17.92 40.96 35.84 58.88 58.88 2.56 2.56 2.56 5.12 0 7.68-20.48 25.6-40.96 53.76-61.44 79.36-7.68 10.24-7.68 17.92-2.56 28.16 15.36 28.16 28.16 56.32 35.84 87.040 2.56 10.24 7.68 15.36 20.48 17.92 30.72 5.12 61.44 7.68 92.16 12.8 5.12 0 10.24 0 12.8 2.56s2.56 7.68 2.56 12.8c2.56 25.6 2.56 48.64 0 74.24 0 2.56 0 5.12-2.56 5.12-7.68 0-12.8 2.56-20.48 2.56-28.16 2.56-56.32 7.68-84.48 10.24-10.24 2.56-15.36 7.68-17.92 17.92-7.68 30.72-20.48 58.88-35.84 87.040-5.12 10.24-5.12 17.92 2.56 25.6 15.36 23.040 35.84 48.64 56.32 76.8 2.56 2.56 2.56 5.12 0 7.68-17.92 20.48-35.84 40.96-58.88 58.88-2.56 2.56-5.12 2.56-7.68 0-25.6-23.040-53.76-43.52-79.36-66.56-7.68-5.12-15.36-7.68-23.040-2.56-28.16 17.92-58.88 28.16-89.6 38.4-10.24 2.56-15.36 7.68-15.36 17.92-5.12 33.28-10.24 69.12-12.8 102.4 0 2.56-2.56 5.12-5.12 5.12-15.36 0-30.72 2.56-43.52 2.56zM686.080 460.8c0-104.96-84.48-186.88-186.88-186.88-104.96 0-186.88 84.48-186.88 186.88s84.48 186.88 186.88 186.88c104.96 0 186.88-84.48 186.88-186.88zM647.68 460.8c0 81.92-66.56 148.48-148.48 148.48s-148.48-66.56-148.48-148.48c0-81.92 66.56-148.48 148.48-148.48s148.48 66.56 148.48 148.48z" />
<glyph unicode="&#xe91b;" glyph-name="attachment" d="M327.68 87.552c-49.152 0-98.304 20.48-135.168 53.248-36.864 36.864-53.248 81.92-53.248 135.168 0 49.152 20.48 98.304 53.248 135.168l393.216 393.216c57.344 57.344 143.36 53.248 200.704-4.096s61.44-147.456 4.096-200.704l-368.64-368.64c-32.768-32.768-90.112-32.768-126.976 0-32.768 32.768-32.768 90.112 0 126.976l249.856 249.856c8.192 8.192 20.48 8.192 28.672 0s8.192-20.48 0-28.672l-249.856-249.856c-16.384-16.384-16.384-45.056 0-65.536 16.384-16.384 45.056-16.384 65.536 0l368.64 368.64c36.864 36.864 36.864 98.304-4.096 143.36-40.96 40.96-102.4 45.056-143.36 4.096l-393.216-393.216c-28.672-28.672-40.96-65.536-40.96-102.4s16.384-77.824 40.96-102.4c28.672-28.672 65.536-40.96 102.4-40.96 40.96 0 77.824 16.384 102.4 40.96l393.216 393.216c8.192 8.192 20.48 8.192 28.672 0s8.192-20.48 0-28.672l-380.928-405.504c-36.864-36.864-81.92-53.248-135.168-53.248z" />
<glyph unicode="&#xe91c;" glyph-name="mail" d="M890.88 826.88h-762.88c-46.080 0-81.92-35.84-81.92-81.92v-542.72c0-46.080 35.84-81.92 81.92-81.92h762.88c46.080 0 81.92 35.84 81.92 81.92v542.72c0 46.080-35.84 81.92-81.92 81.92zM880.64 770.56l-368.64-368.64-373.76 368.64h742.4zM102.4 212.48v517.12l261.12-261.12-261.12-256zM138.24 171.52l261.12 261.12 97.28-87.040c10.24-10.24 30.72-10.24 40.96 0l87.040 87.040 261.12-261.12h-747.52zM921.6 212.48l-261.12 261.12 261.12 256v-517.12z" />
<glyph unicode="&#xe91d;" glyph-name="messages" d="M844.8 837.12h-665.6c-51.2 0-92.16-40.96-92.16-92.16v-486.4c0-51.2 40.96-92.16 92.16-92.16h107.52l-15.36-148.48c0-15.36 10.24-30.72 25.6-35.84 10.24 0 15.36 0 25.6 5.12l194.56 174.080h332.8c51.2 0 92.16 40.96 92.16 92.16v491.52c-10.24 51.2-51.2 92.16-97.28 92.16zM870.4 258.56c0-15.36-15.36-30.72-30.72-30.72h-343.040c-5.12 0-15.36 0-20.48-5.12l-143.36-128 10.24 102.4c0 15.36-10.24 30.72-25.6 35.84v0h-138.24c-15.36 0-30.72 15.36-30.72 30.72v481.28c0 15.36 15.36 30.72 30.72 30.72h665.6c15.36 0 30.72-15.36 30.72-30.72l-5.12-486.4zM322.56 616.96h373.76c15.36 0 20.48 10.24 20.48 20.48s-10.24 20.48-20.48 20.48h-373.76c-10.24 5.12-20.48-5.12-20.48-20.48s10.24-20.48 20.48-20.48zM696.32 540.16h-373.76c-15.36 0-20.48-10.24-20.48-20.48s10.24-20.48 20.48-20.48h373.76c15.36 0 20.48 10.24 20.48 20.48 5.12 5.12-5.12 20.48-20.48 20.48zM696.32 412.16h-373.76c-15.36 0-20.48-10.24-20.48-20.48s10.24-20.48 20.48-20.48h373.76c15.36 0 20.48 10.24 20.48 20.48 5.12 10.24-5.12 20.48-20.48 20.48z" />
<glyph unicode="&#xe91e;" glyph-name="add-block" d="M547.84-33.28c-5.12-5.12-20.48-10.24-30.72-10.24-20.48 0-40.96 20.48-40.96 40.96v865.28c-5.12 20.48 15.36 46.080 40.96 46.080 20.48 0 40.96-20.48 40.96-40.96v-860.16c5.12-15.36 0-30.72-10.24-40.96zM977.92 401.92c-5.12-5.12-20.48-10.24-30.72-10.24h-860.16c-20.48 0-40.96 20.48-40.96 40.96s20.48 40.96 40.96 40.96h860.16c20.48 0 40.96-20.48 40.96-40.96 0-15.36 0-25.6-10.24-30.72z" />
<glyph unicode="&#xe91f;" glyph-name="pencil" d="M957.672 893.666c-88.146 88.364-231.492 88.364-319.638 0l-586.039-585.821c-4.582-4.582-7.418-10.473-8.291-16.8l-43.418-321.602c-1.309-9.164 1.964-18.327 8.291-24.655 5.455-5.455 13.091-8.727 20.727-8.727 1.309 0 2.618 0 3.927 0.218l193.746 26.182c16.146 2.182 27.491 17.018 25.309 33.164s-17.018 27.491-33.164 25.309l-155.346-20.946 30.327 224.292 236.074-236.074c5.455-5.455 13.091-8.727 20.727-8.727s15.273 3.055 20.727 8.727l586.039 585.821c42.764 42.764 66.328 99.491 66.328 159.928s-23.564 117.164-66.328 159.71zM649.38 821.665l98.4-98.4-534.766-534.766-98.4 98.4 534.766 534.766zM351.124 50.607l-96.219 96.219 534.766 534.766 96.219-96.219-534.766-534.766zM926.909 627.483l-235.419 235.419c29.891 24.655 67.2 38.182 106.473 38.182 44.727 0 86.619-17.455 118.255-48.873s48.873-73.528 48.873-118.255c0-39.491-13.527-76.582-38.182-106.473z" />
<glyph unicode="&#xe920;" glyph-name="minus" d="M977.92 401.92c-5.12-5.12-20.48-10.24-30.72-10.24h-860.16c-20.48 0-40.96 20.48-40.96 40.96s20.48 40.96 40.96 40.96h860.16c20.48 0 40.96-20.48 40.96-40.96 0-15.36 0-25.6-10.24-30.72z" />
<glyph unicode="&#xe921;" glyph-name="filter" horiz-adv-x="970" d="M860.968 713.432v130.695c0 12.126-9.432 21.558-20.211 21.558v0h-697.937c-12.126 0-21.558-9.432-21.558-21.558v0-115.874c0 0 0 0 0-1.347v-1.347c0 0 0 0 0-1.347s0 0 0-1.347 0 0 0-1.347c0 0 0 0 0-1.347 0 0 0 0 0-1.347 0 0 0 0 0-1.347 0 0 0 0 0-1.347 0 0 0 0 0-1.347s0 0 0-1.347 0 0 0-1.347v0 0l265.432-311.242v-377.263c0-8.084 4.042-16.168 12.126-20.211 2.695-1.347 5.389-2.695 9.432-2.695 5.389 0 9.432 1.347 13.474 5.389l156.295 126.653c5.389 4.042 8.084 10.779 8.084 17.516v251.958l265.432 311.242c0 0 6.737-1.347 9.432 0zM552.421 425.095c-4.042-4.042-5.389-9.432-5.389-14.821v-247.916l-110.484-90.274v338.189c0 5.389-2.695 10.779-5.389 14.821l-239.832 281.6h600.926l-239.832-281.6zM816.505 751.158h-650.779v71.411h649.432l1.347-71.411z" />
<glyph unicode="&#xe922;" glyph-name="copy" d="M885.76 791.040h-87.040v30.72c0 46.080-40.96 87.040-87.040 87.040h-573.44c-46.080 0-87.040-40.96-87.040-87.040v-578.56c0-46.080 40.96-87.040 87.040-87.040h30.72v-87.040c0-40.96 35.84-81.92 81.92-81.92h634.88c46.080 0 87.040 40.96 87.040 87.040v634.88c0 46.080-40.96 81.92-87.040 81.92zM168.96 709.12v-491.52h-30.72c-15.36 0-30.72 15.36-30.72 30.72v573.44c0 15.36 15.36 30.72 30.72 30.72h578.56c15.36 0 30.72-15.36 30.72-30.72v-30.72h-496.64c-46.080 0-81.92-35.84-81.92-81.92zM916.48 74.24c0-15.36-15.36-30.72-30.72-30.72h-634.88c-15.36 0-30.72 15.36-30.72 30.72v634.88c0 15.36 15.36 30.72 30.72 30.72h634.88c15.36 0 30.72-15.36 30.72-30.72v-634.88z" />
<glyph unicode="&#xe923;" glyph-name="arrow-right" d="M1010.055 481.668l-304.726 304.726c-18.592 18.592-48.745 18.592-67.337 0-18.596-18.596-18.596-48.741 0-67.337l223.444-223.444h-813.823c-26.294 0-47.613-21.319-47.613-47.613 0-26.29 21.319-47.613 47.613-47.613h813.823l-223.436-223.444c-18.596-18.596-18.596-48.741 0-67.337 9.294-9.29 21.483-13.945 33.668-13.945s24.37 4.655 33.668 13.945l304.718 304.726c18.596 18.596 18.596 48.741 0 67.337z" />
<glyph unicode="&#xe924;" glyph-name="speaker" d="M527.36-12.8c-10.24 0-25.6 5.12-35.84 10.24l-276.48 220.16h-128c-51.2 0-87.040 40.96-87.040 87.040v240.64c0 51.2 40.96 87.040 87.040 87.040h122.88l281.6 225.28c15.36 10.24 40.96 15.36 61.44 5.12s30.72-30.72 30.72-51.2v-768c0-20.48-10.24-40.96-30.72-51.2-5.12 0-15.36-5.12-25.6-5.12zM87.040 576c-15.36 0-30.72-10.24-30.72-30.72v-235.52c0-15.36 10.24-30.72 30.72-30.72h138.24c5.12 0 10.24 0 15.36-5.12l286.72-230.4v762.88l-281.6-230.4c-5.12-5.12-15.36-5.12-20.48-5.12l-138.24 5.12zM711.68 637.44c-15.36 15.36-30.72 15.36-46.080 0-10.24-10.24-10.24-30.72 0-40.96 46.080-46.080 71.68-102.4 71.68-163.84s-25.6-122.88-71.68-168.96c-10.24-10.24-10.24-30.72 0-40.96 5.12-5.12 10.24-5.12 20.48-5.12s15.36 0 20.48 5.12c56.32 56.32 87.040 128 87.040 209.92 0 76.8-30.72 148.48-81.92 204.8zM793.6 719.36c-10.24 10.24-30.72 10.24-40.96 0s-10.24-30.72 0-40.96c66.56-66.56 102.4-153.6 102.4-250.88s-35.84-184.32-102.4-250.88c-10.24-10.24-10.24-30.72 0-40.96 5.12-5.12 10.24-5.12 20.48-5.12s15.36 0 20.48 5.12c76.8 76.8 117.76 179.2 117.76 291.84s-40.96 215.040-117.76 291.84zM901.12 770.56c-15.36 15.36-30.72 15.36-46.080 0s-15.36-35.84 0-51.2c71.68-76.8 107.52-184.32 107.52-291.84s-40.96-215.040-107.52-291.84c-15.36-15.36-15.36-35.84 0-51.2 5.12-5.12 15.36-10.24 20.48-10.24 10.24 0 15.36 5.12 20.48 10.24 81.92 92.16 128 209.92 128 343.040s-40.96 256-122.88 343.040z" />
<glyph unicode="&#xe925;" glyph-name="info1" d="M460.8 550.4c25.6 0 51.2 0 76.8 0 20.48 0 30.72-10.24 30.72-30.72s-5.12-40.96-10.24-61.44c-10.24-51.2-20.48-102.4-25.6-153.6-5.12-20.48-10.24-35.84-10.24-56.32 0-10.24 0-20.48 0-25.6 5.12-15.36 15.36-25.6 30.72-20.48 10.24 0 20.48 5.12 25.6 10.24s15.36 10.24 20.48 10.24c10.24 5.12 15.36 0 15.36-10.24s-5.12-15.36-10.24-20.48c-25.6-30.72-61.44-46.080-97.28-51.2-25.6 0-46.080-5.12-71.68 0-35.84 10.24-56.32 30.72-66.56 66.56-5.12 15.36 0 35.84 5.12 51.2 10.24 66.56 25.6 138.24 35.84 204.8 0 5.12 0 10.24 0 15.36 5.12 20.48 0 25.6-15.36 25.6-5.12 0-10.24 0-15.36 0-5.12 5.12-15.36 5.12-20.48 15.36-10.24 5.12-10.24 20.48 5.12 25.6 5.12 5.12 10.24 5.12 20.48 5.12 25.6 0 51.2 0 76.8 0 0 0 0 0 0 0zM424.96 668.16c0 46.080 35.84 81.92 81.92 81.92s76.8-35.84 76.8-81.92c0-46.080-35.84-81.92-81.92-81.92-40.96 0-76.8 35.84-76.8 81.92zM496.64-7.68c-245.76 0-450.56 199.68-450.56 450.56s199.68 450.56 450.56 450.56c245.76 0 450.56-199.68 450.56-450.56s-199.68-450.56-450.56-450.56zM496.64 847.36c-225.28 0-409.6-184.32-409.6-409.6s184.32-409.6 409.6-409.6 409.6 184.32 409.6 409.6-184.32 409.6-409.6 409.6z" />
<glyph unicode="&#xe926;" glyph-name="add-attandee" d="M972.8 483.84c-5.12 0-5.12-5.12-5.12-5.12-10.24-20.48-25.6-25.6-40.96-25.6s-25.6 0-40.96 0c-5.12 0-10.24 0-10.24-10.24 0-15.36 0-30.72 0-46.080 0-25.6-20.48-46.080-40.96-46.080s-40.96 20.48-40.96 46.080c0 15.36 0 30.72 0 46.080 0 5.12 0 10.24-10.24 10.24-15.36 0-35.84 0-51.2 0s-30.72 10.24-40.96 25.6c-5.12 15.36-5.12 30.72 0 40.96 10.24 10.24 20.48 20.48 35.84 20.48 20.48 0 35.84 0 56.32 0 5.12 0 10.24 0 10.24 10.24 0 15.36 0 30.72 0 46.080 0 25.6 20.48 46.080 46.080 46.080 20.48 0 40.96-20.48 40.96-46.080 0-15.36 0-30.72 0-46.080 0-5.12 0-10.24 10.24-10.24 15.36 0 25.6 0 40.96 0 25.6 0 40.96-10.24 46.080-35.84 0 0 0-5.12 0-5.12-5.12-5.12-5.12-10.24-5.12-15.36zM71.68 299.52c5.12 15.36 5.12 30.72 10.24 40.96 15.36 71.68 56.32 133.12 112.64 179.2 15.36 15.36 40.96 10.24 56.32-5.12s15.36-40.96 0-56.32c-5.12-5.12-10.24-5.12-15.36-10.24-51.2-40.96-76.8-97.28-76.8-163.84 0-56.32 0-112.64 0-168.96 0-30.72 15.36-46.080 46.080-46.080 189.44 0 384 0 573.44 0 30.72 0 46.080 15.36 46.080 46.080 0 51.2 0 102.4 0 153.6 0 25.6 15.36 40.96 40.96 46.080 20.48 0 40.96-15.36 40.96-40.96 0-56.32 5.12-117.76 0-174.080-5.12-51.2-51.2-97.28-102.4-107.52-10.24 0-25.6 0-35.84 0-184.32 0-368.64 0-552.96 0-30.72 0-56.32 5.12-81.92 20.48-30.72 20.48-51.2 51.2-56.32 87.040 0 0 0 5.12 0 5.12 0 10.24 0 25.6 0 35.84 0 0 0 5.12 0 5.12 0 46.080 0 92.16 0 138.24 0 0 0 5.12 0 5.12-5.12 5.12-5.12 5.12-5.12 10.24zM486.4 483.84c0 0-5.12 0-5.12 0-61.44 0-117.76 25.6-163.84 71.68-40.96 46.080-61.44 102.4-61.44 168.96 0 61.44 25.6 117.76 71.68 163.84 46.080 40.96 102.4 66.56 163.84 61.44 61.44 0 117.76-25.6 163.84-71.68 40.96-46.080 66.56-102.4 61.44-163.84 0-61.44-25.6-117.76-71.68-163.84-40.96-46.080-97.28-66.56-158.72-66.56zM486.4 867.84c-35.84 0-76.8-10.24-102.4-40.96-30.72-30.72-46.080-66.56-51.2-107.52 0-87.040 66.56-158.72 148.48-158.72 40.96 0 81.92 15.36 112.64 40.96s46.080 66.56 51.2 107.52v0c0 40.96-15.36 81.92-40.96 112.64s-71.68 46.080-117.76 46.080c5.12 0 5.12 0 0 0z" />
<glyph unicode="&#xe927;" glyph-name="grid" d="M399.36 929.28h-281.6c-30.72 0-61.44-25.6-61.44-61.44v-281.6c0-30.72 25.6-61.44 61.44-61.44h281.6c35.84 0 61.44 25.6 61.44 61.44v281.6c0 35.84-25.6 61.44-61.44 61.44zM419.84 586.24c0-10.24-10.24-20.48-20.48-20.48h-286.72c-10.24 0-20.48 5.12-20.48 20.48v281.6c0 10.24 10.24 20.48 20.48 20.48h281.6c10.24 0 20.48-10.24 20.48-20.48v-281.6h5.12zM399.36 514.56h-281.6c-35.84 0-71.68 30.72-71.68 71.68v281.6c0 35.84 30.72 71.68 71.68 71.68h281.6c35.84 0 71.68-30.72 71.68-71.68v-281.6c0-40.96-30.72-71.68-71.68-71.68zM112.64 924.16c-25.6 0-51.2-25.6-51.2-51.2v-281.6c0-25.6 25.6-51.2 51.2-51.2h281.6c25.6 0 51.2 25.6 51.2 51.2v281.6c0 25.6-25.6 51.2-51.2 51.2h-281.6zM399.36 555.52h-281.6c-15.36 0-30.72 15.36-30.72 30.72v281.6c0 15.36 15.36 30.72 30.72 30.72h281.6c15.36 0 30.72-15.36 30.72-30.72v-281.6c0-15.36-15.36-30.72-30.72-30.72zM112.64 883.2c-5.12 0-10.24-5.12-10.24-10.24v-281.6c0-5.12 5.12-10.24 10.24-10.24h281.6c10.24-5.12 15.36 0 15.36 5.12v286.72c0 5.12-5.12 10.24-10.24 10.24h-286.72zM926.72 929.28h-281.6c-30.72 0-61.44-25.6-61.44-61.44v-281.6c0-30.72 25.6-61.44 61.44-61.44h281.6c30.72 0 61.44 25.6 61.44 61.44v281.6c0 35.84-25.6 61.44-61.44 61.44zM952.32 586.24c0-10.24-10.24-20.48-20.48-20.48h-281.6c-10.24 0-20.48 10.24-20.48 20.48v281.6c0 10.24 10.24 20.48 20.48 20.48h281.6c10.24 0 20.48-10.24 20.48-20.48v-281.6zM926.72 514.56h-281.6c-35.84 0-71.68 30.72-71.68 71.68v281.6c0 35.84 30.72 71.68 71.68 71.68h281.6c35.84 0 71.68-30.72 71.68-71.68v-281.6c5.12-40.96-30.72-71.68-71.68-71.68zM645.12 924.16c-25.6 0-51.2-25.6-51.2-51.2v-281.6c0-25.6 25.6-51.2 51.2-51.2h281.6c25.6 0 51.2 25.6 51.2 51.2v281.6c0 25.6-25.6 51.2-51.2 51.2h-281.6zM926.72 555.52h-281.6c-15.36 0-30.72 15.36-30.72 30.72v281.6c0 15.36 15.36 30.72 30.72 30.72h281.6c15.36 0 30.72-15.36 30.72-30.72v-281.6c5.12-15.36-10.24-30.72-30.72-30.72zM645.12 883.2c-5.12 0-10.24-5.12-10.24-10.24v-281.6c0-5.12 5.12-10.24 10.24-10.24h281.6c5.12 0 10.24 5.12 10.24 10.24v281.6c0 5.12-5.12 10.24-10.24 10.24h-281.6zM399.36 401.92h-281.6c-30.72 0-61.44-25.6-61.44-61.44v-281.6c0-30.72 25.6-61.44 61.44-61.44h281.6c30.72 0 61.44 25.6 61.44 61.44v281.6c0 35.84-25.6 61.44-61.44 61.44zM419.84 58.88c0-10.24-10.24-20.48-20.48-20.48h-286.72c-10.24 0-20.48 10.24-20.48 20.48v281.6c0 10.24 10.24 20.48 20.48 20.48h281.6c10.24 0 20.48-10.24 20.48-20.48v-281.6h5.12zM399.36-12.8h-281.6c-35.84 0-71.68 30.72-71.68 71.68v281.6c0 35.84 30.72 71.68 71.68 71.68h281.6c35.84 0 71.68-30.72 71.68-71.68v-281.6c0-40.96-30.72-71.68-71.68-71.68zM112.64 391.68c-25.6 0-51.2-25.6-51.2-51.2v-281.6c0-25.6 25.6-51.2 51.2-51.2h281.6c25.6 0 51.2 25.6 51.2 51.2v281.6c0 25.6-25.6 51.2-51.2 51.2h-281.6zM399.36 28.16h-281.6c-15.36 0-30.72 15.36-30.72 30.72v281.6c0 15.36 15.36 30.72 30.72 30.72h281.6c15.36 0 30.72-15.36 30.72-30.72v-281.6c0-15.36-15.36-30.72-30.72-30.72zM112.64 350.72c-5.12 0-10.24-5.12-10.24-10.24v-281.6c0-5.12 5.12-10.24 10.24-10.24h281.6c5.12 0 10.24 5.12 10.24 10.24v281.6c0 5.12-5.12 10.24-10.24 10.24h-281.6zM926.72 401.92h-281.6c-30.72 0-61.44-25.6-61.44-61.44v-281.6c0-30.72 25.6-61.44 61.44-61.44h281.6c30.72 0 61.44 25.6 61.44 61.44v281.6c0 35.84-25.6 61.44-61.44 61.44zM952.32 58.88c0-10.24-10.24-20.48-20.48-20.48h-281.6c-10.24 0-20.48 10.24-20.48 20.48v281.6c0 10.24 10.24 20.48 20.48 20.48h281.6c10.24 0 20.48-10.24 20.48-20.48v-281.6zM926.72-12.8h-281.6c-35.84 0-71.68 30.72-71.68 71.68v281.6c0 35.84 30.72 71.68 71.68 71.68h281.6c35.84 0 71.68-30.72 71.68-71.68v-281.6c5.12-40.96-30.72-71.68-71.68-71.68zM645.12 391.68c-25.6 0-51.2-25.6-51.2-51.2v-281.6c0-25.6 25.6-51.2 51.2-51.2h281.6c25.6 0 51.2 25.6 51.2 51.2v281.6c0 25.6-25.6 51.2-51.2 51.2h-281.6zM926.72 28.16h-281.6c-15.36 0-30.72 15.36-30.72 30.72v281.6c0 15.36 15.36 30.72 30.72 30.72h281.6c15.36 0 30.72-15.36 30.72-30.72v-281.6c5.12-15.36-10.24-30.72-30.72-30.72zM645.12 350.72c-5.12 0-10.24-5.12-10.24-10.24v-281.6c0-5.12 5.12-10.24 10.24-10.24h281.6c5.12 0 10.24 5.12 10.24 10.24v281.6c0 5.12-5.12 10.24-10.24 10.24h-281.6z" />
<glyph unicode="&#xe928;" glyph-name="copy-link" d="M96 960c-52.642 0-96-43.358-96-96v-576c0-52.642 43.358-96 96-96h32v-32c0-52.642 43.358-96 96-96h576c52.642 0 96 43.358 96 96v576c0 52.642-43.358 96-96 96h-32v32c0 52.642-43.358 96-96 96h-576zM96 896h576c18.014 0 32-13.986 32-32v-32h-480c-52.642 0-96-43.358-96-96v-480h-32c-18.014 0-32 13.986-32 32v576c0 18.014 13.986 32 32 32zM224 768h576c18.014 0 32-13.986 32-32v-576c0-18.014-13.986-32-32-32h-576c-18.014 0-32 13.986-32 32v576c0 18.014 13.986 32 32 32zM672 703.875c-24.592 0-49.187-9.312-67.875-28l-64-64c-29.44-29.44-34.832-72.916-18-108.5-0.257-0.249-0.501-0.493-0.742-0.741l-0.008-0.009-64-64c-0.173-0.2-0.378-0.444-0.579-0.691l-0.046-0.059c-0.037 0.017-0.088-0.017-0.125 0-35.628 16.705-79.154 11.282-108.5-18l-64-64c-37.44-37.44-37.44-98.31 0-135.75 18.176-18.176 42.275-28.125 67.875-28.125s49.699 10.013 67.875 28.125l64 64c29.44 29.44 34.957 72.916 18.125 108.5 0.173 0.2 0.378 0.444 0.579 0.691l0.046 0.059 64 64c0.085 0.084 0.166 0.165 0.247 0.247l0.003 0.003c5.794 5.792 9.378 13.794 9.378 22.634 0 17.675-14.328 32.003-32.003 32.003-0.307 0-0.614-0.004-0.919-0.013l0.045 0.001c-7.862-0.24-14.971-3.281-20.405-8.152l0.030 0.027 62.375 62.5 64 64c6.208 6.208 14.433 9.375 22.625 9.375s16.353-3.167 22.625-9.375c12.48-12.48 12.48-32.77 0-45.25l-127.75-127.75c12.736-6.080 26.597-9.625 41.125-9.625 25.6 0 49.699 10.013 67.875 28.125l64 64c37.44 37.44 37.44 98.31 0 135.75-18.688 18.688-43.283 28-67.875 28zM455.125 436.25c-4.935-5.603-7.947-13.003-7.947-21.107 0-17.675 14.328-32.003 32.003-32.003 8.322 0 15.901 3.176 21.593 8.382l-0.024-0.022-126.125-126.125c-12.096-12.096-33.154-12.096-45.25 0-12.48 12.48-12.48 32.77 0 45.25l125.75 125.625z" />
<glyph unicode="&#xe929;" glyph-name="warning-filled" d="M952.32 227.84l-322.56 599.040c-51.2 87.040-179.2 87.040-230.4 0l-327.68-599.040c-51.2-92.16 10.24-204.8 117.76-204.8h650.24c102.4 0 168.96 112.64 112.64 204.8zM512 130.56c-30.72 0-56.32 25.6-56.32 56.32s25.6 56.32 56.32 56.32 56.32-25.6 56.32-56.32-25.6-56.32-56.32-56.32zM568.32 345.6c0-30.72-25.6-56.32-56.32-56.32s-56.32 25.6-56.32 56.32v271.36c0 30.72 25.6 56.32 56.32 56.32s56.32-25.6 56.32-56.32v-271.36z" />
<glyph unicode="&#xe92a;" glyph-name="appointment-scheduled" d="M812 540c0-22.091-17.909-40-40-40s-40 17.909-40 40c0 22.091 17.909 40 40 40s40-17.909 40-40zM864 880h-52v40c0 22-18 40-40 40s-40-18-40-40v-40h-182v40c0 22-18 40-40 40s-40-18-40-40v-40h-180v40c0 22-18 40-40 40s-40-18-40-40v-40h-50c-88.2 0-160-71.8-160-160v-624c0-88.2 71.8-160 160-160h306c22 0 40 18 40 40s-18 40-40 40h-306c-44.2 0-80 35.8-80 80v624c0 44.2 35.8 80 80 80h50v-40c0-22 18-40 40-40s40 18 40 40v40h180v-40c0-22 18-40 40-40s40 18 40 40v40h182v-40c0-22 18-40 40-40s40 18 40 40v40h52c44.2 0 80-35.8 80-80v-228c0-22 18-40 40-40s40 18 40 40v228c0 88.2-71.8 160-160 160zM782 420c-133.4 0-242-108.6-242-242s108.6-242 242-242 242 108.6 242 242-108.6 242-242 242zM782 16c-89.4 0-162 72.6-162 162s72.6 162 162 162 162-72.6 162-162-72.6-162-162-162zM840 218h-18v42c0 22-18 40-40 40s-40-18-40-40v-82c0-22 18-40 40-40h58c22 0 40 18 40 40s-18 40-40 40zM638 540c0-22.091-17.909-40-40-40s-40 17.909-40 40c0 22.091 17.909 40 40 40s40-17.909 40-40zM464 366c0-22.091-17.909-40-40-40s-40 17.909-40 40c0 22.091 17.909 40 40 40s40-17.909 40-40zM290 540c0-22.091-17.909-40-40-40s-40 17.909-40 40c0 22.091 17.909 40 40 40s40-17.909 40-40zM290 366c0-22.091-17.909-40-40-40s-40 17.909-40 40c0 22.091 17.909 40 40 40s40-17.909 40-40zM290 192c0-22.091-17.909-40-40-40s-40 17.909-40 40c0 22.091 17.909 40 40 40s40-17.909 40-40zM464 192c0-22.091-17.909-40-40-40s-40 17.909-40 40c0 22.091 17.909 40 40 40s40-17.909 40-40zM464 540c0-22.091-17.909-40-40-40s-40 17.909-40 40c0 22.091 17.909 40 40 40s40-17.909 40-40z" />
<glyph unicode="&#xe92b;" glyph-name="dr-name" d="M876.334 40.884l-37.261 222.189c-4.14 23.461-20.701 42.782-44.162 49.682l-102.124 30.361c-2.76 24.841-12.42 48.302-28.981 67.623-13.801 15.181-30.361 26.221-49.682 31.741 2.76 4.14 6.9 6.9 9.66 11.040 24.841 30.361 37.261 64.863 41.402 88.323h8.28c20.701 0 37.261 16.561 37.261 37.261v19.321c0 13.801-8.28 26.221-19.321 33.121v45.542c0 6.9-5.52 12.42-12.42 12.42s-12.42-5.52-12.42-12.42v-51.062c-5.52-1.38-11.040-2.76-16.561-5.52 0 0-1.38 0-1.38-1.38-1.38 0-2.76-1.38-4.14-1.38v100.744c0 27.601-23.461 51.062-51.062 51.062h-34.501c-12.42 0-23.461-4.14-33.121-12.42l-2.76-2.76c-6.9-5.52-13.801-8.28-22.081-8.28s-16.561 2.76-22.081 8.28l-2.76 2.76c-9.66 8.28-20.701 12.42-33.121 12.42h-34.501c-27.601 0-51.062-22.081-51.062-51.062v-100.744c-1.38 1.38-2.76 1.38-4.14 1.38 0 0-1.38 0-1.38 1.38-5.52 2.76-12.42 4.14-16.561 5.52v131.105c0 40.022 33.121 74.523 74.523 74.523h184.927c40.022 0 74.523-33.121 74.523-74.523v-19.321c0-6.9 5.52-12.42 12.42-12.42s12.42 5.52 12.42 12.42v19.321c0 55.202-44.162 99.364-99.364 99.364h-190.447c-55.202 0-99.364-44.162-99.364-99.364v-124.205c-11.040-6.9-19.321-19.321-19.321-33.121v-19.321c0-20.701 16.561-37.261 37.261-37.261h8.28c2.76-23.461 16.561-57.962 41.402-88.323 2.76-4.14 5.52-6.9 9.66-11.040-44.162-13.801-75.903-52.442-78.663-99.364l-102.124-30.361c-23.461-6.9-40.022-26.221-44.162-49.682l-17.941-91.084c-1.38-6.9 4.14-13.801 9.66-15.181 6.9-1.38 13.801 2.76 15.181 9.66l15.181 89.704c2.76 15.181 12.42 26.221 26.221 30.361l95.224 28.981v-24.841c-22.081-4.14-40.022-19.321-48.302-40.022-1.38-5.52-2.76-11.040-4.14-16.561l-9.66-117.305c0-8.28 2.76-17.941 8.28-24.841s15.181-9.66 23.461-9.66h15.181c6.9 0 12.42 5.52 12.42 12.42s-5.52 12.42-12.42 12.42h-15.181c-1.38 0-4.14 1.38-5.52 2.76s-1.38 2.76-1.38 5.52l9.66 117.305c0 4.14 1.38 6.9 2.76 9.66 5.52 13.801 19.321 23.461 35.881 24.841h1.38c0 0 0 0 0 0 15.181 0 28.981-8.28 34.501-22.081 1.38-4.14 2.76-8.28 2.76-12.42l9.66-117.305c0-1.38 0-4.14-1.38-5.52s-2.76-2.76-5.52-2.76h-15.181c-6.9 0-12.42-5.52-12.42-12.42s5.52-12.42 12.42-12.42h15.181c8.28 0 17.941 4.14 23.461 9.66 5.52 6.9 9.66 15.181 8.28 24.841l-9.66 117.305c0 6.9-2.76 13.801-5.52 19.321-8.28 19.321-26.221 33.121-46.922 37.261v33.121l42.782 12.42c4.14-8.28 12.42-26.221 27.601-64.863s34.501-88.323 53.822-138.005c0 0 0-1.38 0-1.38 12.42-31.741 24.841-63.482 34.501-91.084 1.38-5.52 6.9-8.28 12.42-8.28s9.66 2.76 12.42 8.28c9.66 27.601 22.081 59.342 34.501 91.084 0 0 0 1.38 0 1.38 17.941 48.302 37.261 97.984 53.822 136.625 15.181 38.642 23.461 56.582 27.601 64.863l42.782-12.42v-74.523c-30.361-5.52-52.442-31.741-52.442-63.482 0-35.881 28.981-64.863 64.863-64.863s64.863 28.981 64.863 64.863c0 31.741-22.081 57.962-52.442 63.482v66.243l95.224-28.981c13.801-4.14 24.841-16.561 26.221-30.361l37.261-222.189c0-4.14 0-6.9-2.76-9.66s-5.52-4.14-9.66-4.14h-683.127c-4.14 0-6.9 1.38-9.66 4.14s-2.76 6.9-2.76 9.66l12.42 73.143c1.38 6.9-2.76 13.801-9.66 15.181s-13.801-2.76-15.181-9.66l-12.42-73.143c-1.38-11.040 1.38-22.081 8.28-30.361s17.941-13.801 28.981-13.801h685.887c11.040 0 22.081 5.52 28.981 13.801 8.28 9.66 11.040 20.701 8.28 31.741zM663.806 601.186c6.9 1.38 12.42 1.38 12.42 1.38 2.76 0 4.14 0 6.9 1.38 0-1.38 1.38-2.76 1.38-4.14v-19.321c0-6.9-5.52-12.42-12.42-12.42h-6.9v33.121zM329.833 568.065v0h-6.9c-6.9 0-12.42 5.52-12.42 12.42v19.321c0 1.38 0 2.76 1.38 4.14 1.38-1.38 4.14-1.38 5.52-1.38 0 0 5.52 0 12.42-1.38v-33.121zM354.674 554.264v33.121c4.14-1.38 8.28-1.38 12.42 0 6.9 2.76 11.040 9.66 11.040 16.561v115.925c0 13.801 11.040 26.221 26.221 26.221h34.501c5.52 0 12.42-2.76 16.561-5.52l2.76-2.76c11.040-8.28 24.841-13.801 38.642-13.801s27.601 4.14 38.642 13.801l2.76 1.38c4.14 4.14 11.040 5.52 16.561 5.52h34.501c13.801 0 26.221-11.040 26.221-26.221v-115.925c0-6.9 4.14-13.801 11.040-16.561 2.76-1.38 4.14-1.38 6.9-1.38 1.38 0 2.76 0 5.52 1.38v-33.121c0-17.941-12.42-53.822-35.881-84.183-8.28-9.66-17.941-20.701-30.361-30.361 0 0-1.38 0-1.38-1.38-19.321-13.801-44.162-24.841-74.523-24.841s-55.202 11.040-74.523 24.841c0 0-1.38 0-1.38 1.38-12.42 9.66-22.081 19.321-30.361 30.361-22.081 31.741-35.881 67.623-35.881 85.563zM579.623 351.396l-82.803-62.102-82.803 62.102c8.28 11.040 12.42 23.461 12.42 35.881v20.701c19.321-11.040 42.782-17.941 69.003-17.941 27.601 0 49.682 6.9 69.003 17.941v-20.701c1.38-12.42 6.9-26.221 15.181-35.881zM393.315 365.197c-6.9 2.76-13.801 2.76-20.701 1.38 0 0 0 0-1.38 0l-42.782-13.801c6.9 35.881 37.261 64.863 74.523 70.383v-37.261c-1.38-6.9-4.14-15.181-9.66-20.701zM427.817 264.453c0 0 0 0 0 0-1.38 1.38-1.38 2.76-1.38 5.52 0 0 0 0 0 1.38s-1.38 2.76-1.38 4.14c0 0 0 0 0 0-1.38 4.14-4.14 9.66-5.52 13.801 0 0 0 0 0 1.38s-1.38 2.76-1.38 4.14c0 0 0 1.38 0 1.38 0 1.38-1.38 2.76-1.38 4.14 0 0 0 0 0 1.38-1.38 1.38-1.38 4.14-2.76 5.52 0 0 0 1.38 0 1.38 0 1.38 0 1.38-1.38 2.76 0 1.38 0 1.38-1.38 2.76 0 0 0 0 0 1.38 0 0 0 0 0 0-1.38 4.14-2.76 6.9-4.14 9.66 0 0 0 0 0 0-1.38 1.38-1.38 2.76-1.38 4.14s0 1.38-1.38 2.76l70.383-52.442-33.121-15.181c0 0 0 0 0 0l-12.42-5.52c0 1.38-1.38 2.76-1.38 5.52zM456.798 187.17c-2.76 6.9-5.52 12.42-6.9 19.321-4.14 9.66-8.28 19.321-11.040 28.981l4.14 1.38 19.321-22.081-5.52-27.601zM496.819 85.046c0 1.38-1.38 1.38-1.38 2.76-5.52 15.181-12.42 34.501-20.701 55.202l11.040 64.863h20.701l11.040-64.863c-6.9-23.461-15.181-42.782-20.701-57.962zM512 231.332h-30.361l-13.801 16.561 28.981 12.42 28.981-12.42-13.801-16.561zM543.741 206.491c-2.76-6.9-5.52-12.42-6.9-19.321l-5.52 27.601 19.321 22.081 4.14-1.38c-4.14-9.66-6.9-19.321-11.040-28.981zM592.043 327.935c0-1.38-1.38-2.76-1.38-4.14 0 0 0 0 0 0 0-1.38-1.38-2.76-1.38-4.14 0 0 0 0 0 0 0-1.38-1.38-2.76-1.38-4.14 0 0 0 0 0-1.38 0 0 0-1.38 0-1.38s0-1.38-1.38-1.38c0-1.38 0-1.38-1.38-2.76 0 0 0 0 0-1.38-1.38-2.76-1.38-4.14-2.76-6.9 0 0 0-1.38 0-1.38 0-1.38-1.38-2.76-1.38-2.76s0-1.38 0-1.38-1.38-2.76-1.38-4.14c0 0 0-1.38 0-1.38-1.38-4.14-4.14-8.28-5.52-13.801 0 0 0 0 0 0 0-1.38-1.38-2.76-1.38-4.14 0 0 0 0 0-1.38s-1.38-2.76-1.38-4.14c0 0 0 0 0 0-1.38-1.38-1.38-4.14-2.76-5.52l-16.561 4.14-28.981 12.42 70.383 52.442c-1.38 0-1.38-1.38-1.38-1.38zM622.404 365.197v0 0c-6.9 2.76-15.181 1.38-22.081-1.38-5.52 5.52-8.28 13.801-8.28 22.081v37.261c37.261-5.52 66.243-34.501 74.523-70.383l-44.162 12.42zM720.388 187.17c0-22.081-17.941-40.022-40.022-40.022s-40.022 17.941-40.022 40.022c0 22.081 17.941 40.022 40.022 40.022s40.022-17.941 40.022-40.022z" />
<glyph unicode="&#xe92c;" glyph-name="foot-injury" d="M789.4 463.4c-29 31.4-65.2 54.2-105.2 67.2 25.6 35.2 40.6 78.2 40.6 125v89.2c0.2 117.4-94 214.6-211.6 215.2-118 0.6-214.2-95.2-214.2-213v-91.4c0-46.6 15-89.8 40.6-125-39.8-12.8-76-35.8-105.2-67.2-42.6-46-66-105.8-66-168.4v-239h60v-120h625c1.2 0 2 0.8 2 2v357c0 62.8-23.4 122.6-66 168.4v0zM359 657.6v59.6h305.8v-61.4c0-84.8-69.4-153.8-154.4-153-84 0.8-151.4 70.6-151.4 154.8zM627.4 847.2c17-19.6 29.2-43.6 34.4-70h-191.8l157.4 70zM512 900c21.2 0 41.2-4.2 59.6-12l-204-90.8c20.6 59.6 77.6 102.8 144.4 102.8zM228.6 295c0 47.4 17.8 92.8 50 127.6 26.4 28.4 60.6 47.8 98 55.8l96.4-362.4h-244.4v179zM513.8 196h120.8c21.6 0 40.2-16.8 41-38.4 0.8-22.8-17.4-41.6-40-41.6h-100.4l-21.4 80zM793.4-4h-504.8v60h345.4c54.8 0 100.6 43.4 101.6 98 1 56-44.2 102-100 102h-137.6l-52.6 197.4c21-7 43.4-10.8 66.6-10.8 45.2 0 87 14.2 121.6 38.2 42.8-5.8 82.2-26.2 111.8-58.2 32.2-34.8 50-80 50-127.6v-297.2c0-1-0.8-1.8-2-1.8z" />
<glyph unicode="&#xe92d;" glyph-name="clock" d="M512 960c-282.314 0-511.995-229.682-511.995-511.995 0-282.318 229.677-512.005 511.991-512.005 282.318 0 511.995 229.686 511.995 512.005 0.005 282.314-229.672 511.995-511.991 511.995zM512 6.089c-243.667 0-441.902 198.244-441.902 441.916-0.005 243.667 198.235 441.906 441.902 441.906s441.906-198.24 441.906-441.906c0-243.676-198.24-441.916-441.906-441.916zM776.175 454.841h-243.213v265.693c0 19.354-15.686 35.044-35.044 35.044-19.354 0-35.044-15.691-35.044-35.044v-300.738c0-19.354 15.691-35.044 35.044-35.044h278.258c19.359 0 35.044 15.691 35.044 35.044s-15.691 35.044-35.044 35.044z" />
<glyph unicode="&#xe92e;" d="M729.6 174.4h-646c-15.4 0-27.8 12.6-27.8 28v368.4h743.4v-124c17.6 6.2 36.2 9.6 55.8 9.6v237.2c0 46.2-37.6 83.8-83.8 83.8h-687.4c-46.2 0-83.8-37.6-83.8-83.8v-491.2c0-46.2 37.6-83.8 83.8-83.8h687.6c12.2 0 23.6 2.6 34.2 7.4-29.8 9-55.8 26-76 48.4z" />
<glyph unicode="&#xe92f;" d="M112.6 512.2h55.8v-55.8h-55.8v55.8z" />
<glyph unicode="&#xe930;" d="M112.6 400.6h55.8v-55.8h-55.8v55.8z" />
<glyph unicode="&#xe931;" d="M112.6 289h55.8v-55.8h-55.8v55.8z" />
<glyph unicode="&#xe932;" d="M253 512.2h489.6v-55.8h-489.6v55.8z" />
<glyph unicode="&#xe933;" d="M253 344.8h443.4c7.6 20.8 19 39.8 33.6 55.8h-477v-55.8z" />
<glyph unicode="&#xe934;" d="M253 233h442.2c-5.8 17-9 35.4-9 54.4 0 0.4 0 1 0 1.4h-433.2v-55.8z" />
<glyph unicode="&#xe935;" glyph-name="sort" d="M376.297 141.879c22.953 0 41.732 18.779 41.732 41.732v734.483c0 15.998-9.041 30.604-22.953 37.559s-31.299 5.565-43.819-4.173l-272.65-204.487c-18.779-13.911-22.258-39.645-8.346-58.425s39.645-22.258 58.425-8.346l205.879 154.408v-651.019c0-22.953 18.779-41.732 41.732-41.732zM647.555 746.993c-22.953 0-41.732-18.779-41.732-41.732v-727.529c0-15.998 9.041-29.907 22.953-37.559 6.26-2.781 12.52-4.173 18.779-4.173 9.041 0 17.388 2.781 25.039 8.346l272.65 201.008c18.779 13.911 22.258 39.645 9.041 58.425-13.911 18.779-39.645 22.258-58.425 9.041l-206.573-152.322v644.759c0 22.955-18.779 41.734-41.732 41.734z" />
<glyph unicode="&#xe936;" d="M855.2 456.4c-19.6 0-38.2-3.6-55.8-9.6-26.8-9.4-50.6-25.4-69.4-46.2-14.6-16-26-35-33.6-55.8-6.2-17.4-10-36.2-10-55.8 0-0.4 0-1 0-1.4 0-19 3.2-37.4 9-54.4 7.4-22 19.2-41.8 34.4-58.6 20.2-22.4 46.2-39.4 75.8-48.4 15.6-4.8 32.4-7.4 49.6-7.4 93.6 0 168.8 75.2 168.8 168.8s-76.2 168.8-168.8 168.8zM940 324.6l-97.6-97.6c-3-3-6.8-4-10.8-4s-7.8 1-10.8 4l-50.8 50.8c-4.8 5.8-4.8 16.6 0 21.4 5.8 4.8 16.6 4.8 21.4 0l40-40 86.8 86.8c6.8 6.8 16.6 6.8 21.4 0 5.4-5.8 5.4-16.6 0.4-21.4z" />
<glyph unicode="&#xe937;" glyph-name="drag-drop" d="M461.813 38.996c0-56.883-46.113-102.996-102.996-102.996s-102.996 46.113-102.996 102.996c0 56.883 46.113 102.996 102.996 102.996s102.996-46.113 102.996-102.996zM461.813 448.119c0-56.883-46.113-102.996-102.996-102.996s-102.996 46.113-102.996 102.996c0 56.883 46.113 102.996 102.996 102.996s102.996-46.113 102.996-102.996zM461.813 857.004c0-56.883-46.113-102.996-102.996-102.996s-102.996 46.113-102.996 102.996c0 56.883 46.113 102.996 102.996 102.996s102.996-46.113 102.996-102.996zM769.371 38.996c0-56.883-46.113-102.996-102.996-102.996s-102.996 46.113-102.996 102.996c0 56.883 46.113 102.996 102.996 102.996s102.996-46.113 102.996-102.996zM769.371 448.119c0-56.883-46.113-102.996-102.996-102.996s-102.996 46.113-102.996 102.996c0 56.883 46.113 102.996 102.996 102.996s102.996-46.113 102.996-102.996zM769.371 857.004c0-56.883-46.113-102.996-102.996-102.996s-102.996 46.113-102.996 102.996c0 56.883 46.113 102.996 102.996 102.996s102.996-46.113 102.996-102.996z" />
<glyph unicode="&#xe938;" glyph-name="photo-camera" d="M512 550.4c-84.838 0-153.6-68.792-153.6-153.6 0-84.838 68.762-153.6 153.6-153.6 84.818 0 153.6 68.762 153.6 153.6 0 84.808-68.782 153.6-153.6 153.6zM921.6 704h-122.88c-16.896 0-35.103 13.107-40.438 29.143l-31.764 95.324c-5.356 16.026-23.542 29.133-40.438 29.133h-348.16c-16.896 0-35.103-13.107-40.438-29.143l-31.764-95.324c-5.356-16.026-23.542-29.133-40.438-29.133h-122.88c-56.32 0-102.4-46.080-102.4-102.4v-460.8c0-56.32 46.080-102.4 102.4-102.4h819.2c56.32 0 102.4 46.080 102.4 102.4v460.8c0 56.32-46.080 102.4-102.4 102.4zM512 140.8c-141.384 0-256 114.616-256 256 0 141.373 114.616 256 256 256 141.363 0 256-114.627 256-256 0-141.384-114.637-256-256-256zM885.76 529.992c-19.784 0-35.84 16.036-35.84 35.84 0 19.784 16.056 35.84 35.84 35.84 19.804 0 35.84-16.056 35.84-35.84 0-19.804-16.046-35.84-35.84-35.84z" />
<glyph unicode="&#xe939;" glyph-name="warning" d="M874.039 810.036c-96.706 96.702-225.278 149.964-362.041 149.964-136.76 0-265.332-53.262-362.038-149.964-96.702-96.702-149.961-225.278-149.961-362.041 0-136.757 53.258-265.332 149.961-362.034 96.706-96.706 225.278-149.961 362.038-149.961s265.332 53.258 362.038 149.961c96.706 96.702 149.961 225.278 149.961 362.034 0.003 136.763-53.255 265.339-149.957 362.041zM436.193 797.182c7.917 8.194 18.603 12.782 30.094 12.782h92.537c11.491 0 22.177-4.63 30.078-12.831 7.904-8.201 12.023-19.154 11.597-30.639l-15.293-346.174c-0.868-23.438-20.659-42.681-44.117-42.681h-58.172c-23.471 0-43.229 19.27-44.041 42.721l-14.339 346.269c-0.399 11.485 3.739 22.352 11.656 30.553zM513.107 72.974c-53.681 0-94.161 42.388-94.161 98.597 0 56.839 40.005 99.702 93.052 99.702 54.79 0 93.052-40.998 93.052-99.702 0.003-58.054-37.807-98.597-91.943-98.597z" />
<glyph unicode="&#xe93a;" glyph-name="poor-signal" d="M511.8 182.6c-49 0-88.8-39.6-88.8-88.4s39.8-88.4 88.8-88.4c49 0 88.8 39.8 88.8 88.4s-39.8 88.4-88.8 88.4zM600.6 251c15.6-8.4 30.2-19.2 43-32.2 11.4-11.2 26.4-17.6 42.4-17.6s31 6.2 42.2 17.4c23.4 23.2 23.4 61 0.2 84.4-32.8 32.8-71.8 57.2-114.2 72.2v-74.4c-0.2-18-5.2-35-13.6-49.8zM410 375.4c-42.4-14.8-81.4-39.2-114.2-71.8-23.4-23.2-23.4-61 0-84.4 11.4-11.4 26.4-17.6 42.4-17.6s31 6.2 42.2 17.4c13 12.8 27.4 23.6 43 32-8.4 14.8-13.4 31.8-13.4 49.6v74.8zM17.6 580.8c-23.4-23.2-23.4-61 0-84.4 11.2-11.2 26.4-17.4 42.4-17.4s31 6.2 42.2 17.4c85 84.6 191.8 139.6 307.8 160v120.8c-148-21.2-284.8-89.2-392.4-196.4zM1006.6 580.2c-107.6 107.4-244.4 175.4-392.4 197v-121c116-20.4 222.8-75.6 307.8-160.4 11.2-11.2 26.4-17.4 42.4-17.4s31 6.2 42.2 17.4c23.2 23.4 23.2 61.2 0 84.4zM160.2 438.6c-11.4-11.2-17.6-26.2-17.6-42.2s6.2-30.8 17.6-42.2c11.2-11.2 26.4-17.4 42.4-17.4s31 6.2 42.2 17.4c46.6 46.4 103.4 79.2 165.2 96.2v122.6c-94-19.2-180.4-65.2-249.8-134.4zM779.2 354c11.4-11.2 26.4-17.6 42.4-17.6s31 6.2 42.2 17.4c11.4 11.2 17.6 26.2 17.6 42.2s-6.2 30.8-17.4 42.2c-69.4 69.2-155.8 115.6-249.8 135v-122.8c61.6-17.2 118.4-50 165-96.4zM512 888.4c-28.6 0-53.8-25-53.8-53.8v-534c0-12 4.6-23.2 11.6-32.2 10-12.8 25.4-21.4 42-21.4s32 8.6 42 21.4c7.2 9.2 11.8 20.4 11.8 32.4v534c0.2 28.6-25 53.6-53.6 53.6z" />
<glyph unicode="&#xe93b;" glyph-name="logo" horiz-adv-x="6281" d="M109.227 645.973l6.827-81.92c47.787 61.44 109.227 88.747 191.147 88.747 136.533 0 204.8-75.093 204.8-225.28v-416.427h-116.053v416.427c0 47.787-13.653 81.92-34.133 102.4s-47.787 34.133-88.747 34.133c-34.133 0-68.267-6.827-95.573-27.307s-47.787-40.96-61.44-75.093v-450.56h-109.227v634.88h102.4zM641.707 331.947c0 61.44 13.653 116.053 34.133 170.667 27.307 47.787 61.44 88.747 102.4 116.053s95.573 40.96 150.187 40.96c88.747 0 157.013-27.307 211.627-88.747s81.92-136.533 81.92-238.933v-6.827c0-61.44-13.653-116.053-34.133-163.84s-54.613-88.747-102.4-116.053-95.573-40.96-150.187-40.96c-88.747 0-157.013 27.307-211.627 88.747s-81.92 136.533-81.92 238.933v0zM750.933 318.293c0-68.267 13.653-129.707 47.787-170.667s75.093-61.44 129.707-61.44c54.613 0 95.573 20.48 129.707 61.44s47.787 102.4 47.787 184.32c0 68.267-13.653 122.88-47.787 170.667-34.133 40.96-75.093 61.44-129.707 61.44s-95.573-20.48-129.707-61.44c-34.133-40.96-47.787-102.4-47.787-184.32zM1556.48 161.28l157.013 484.693h109.227l-225.28-634.88h-81.92l-232.107 634.88h109.227l163.84-484.693zM2184.533-2.56c-88.747 0-157.013 27.307-211.627 81.92s-81.92 129.707-81.92 225.28v27.307c0 61.44 13.653 116.053 34.133 170.667 27.307 47.787 54.613 88.747 102.4 116.053 40.96 27.307 88.747 40.96 143.36 40.96 81.92 0 143.36-27.307 191.147-81.92s68.267-129.707 68.267-232.107v-47.787h-430.080c0-61.44 20.48-116.053 54.613-150.187 34.133-40.96 81.92-54.613 136.533-54.613 40.96 0 68.267 6.827 95.573 20.48s47.787 34.133 68.267 61.44l68.267-54.613c-54.613-81.92-136.533-122.88-238.933-122.88zM2170.88 570.88c-40.96 0-81.92-13.653-109.227-47.787s-47.787-75.093-54.613-136.533h314.027v6.827c0 54.613-20.48 95.573-47.787 129.707s-61.44 47.787-102.4 47.787zM2669.227 11.093h-109.227v901.12h109.227v-901.12zM3529.387 11.093h-150.187v375.467h-382.293v-375.467h-150.187v853.333h150.187v-354.987h382.293v354.987h150.187v-853.333zM3966.293-2.56c-88.747 0-163.84 27.307-218.453 81.92s-81.92 129.707-81.92 225.28v27.307c0 61.44 13.653 122.88 34.133 170.667 27.307 47.787 61.44 88.747 102.4 116.053s95.573 40.96 150.187 40.96c88.747 0 150.187-27.307 197.973-81.92s68.267-129.707 68.267-232.107v-54.613h-416.427c6.827-54.613 20.48-95.573 54.613-122.88s68.267-47.787 116.053-47.787c68.267 0 116.053 27.307 157.013 81.92l75.093-75.093c-27.307-40.96-61.44-68.267-102.4-88.747-34.133-27.307-81.92-40.96-136.533-40.96zM3952.64 543.573c-40.96 0-68.267-13.653-95.573-40.96s-40.96-68.267-47.787-116.053h273.067v13.653c0 47.787-13.653 81.92-40.96 109.227-20.48 20.48-47.787 34.133-88.747 34.133zM4710.4 11.093c-6.827 13.653-13.653 34.133-13.653 61.44-47.787-47.787-102.4-68.267-163.84-68.267s-116.053 20.48-157.013 54.613c-40.96 34.133-61.44 81.92-61.44 136.533 0 68.267 27.307 116.053 75.093 157.013s122.88 54.613 218.453 54.613h88.747v34.133c0 34.133-6.827 61.44-27.307 81.92-27.307 13.653-54.613 27.307-88.747 27.307s-61.44-6.827-81.92-27.307c-20.48-13.653-34.133-34.133-34.133-61.44h-143.36c0 34.133 13.653 68.267 34.133 95.573s54.613 54.613 95.573 68.267c40.96 20.48 81.92 27.307 129.707 27.307 75.093 0 136.533-20.48 177.493-54.613s68.267-88.747 68.267-157.013v-286.72c0-54.613 6.827-102.4 27.307-136.533v-6.827h-143.36zM4553.387 113.493c27.307 0 54.613 6.827 81.92 20.48s40.96 34.133 54.613 54.613v122.88h-75.093c-54.613 0-95.573-6.827-116.053-27.307-27.307-20.48-40.96-40.96-40.96-75.093 0-27.307 6.827-47.787 27.307-68.267 13.653-20.48 40.96-27.307 68.267-27.307zM5133.653 11.093h-143.36v901.12h143.36v-901.12zM5468.16 796.16v-157.013h109.227v-102.4h-109.227v-354.987c0-27.307 6.827-40.96 13.653-54.613s27.307-13.653 54.613-13.653c13.653 0 34.133 0 47.787 6.827v-109.227c-34.133-6.827-61.44-13.653-95.573-13.653-109.227 0-163.84 61.44-163.84 184.32v354.987h-102.4v109.227h102.4v150.187h143.36zM5829.973 577.707c40.96 54.613 102.4 81.92 177.493 81.92 136.533 0 204.8-75.093 204.8-232.107v-416.427h-143.36v409.6c0 40.96-6.827 75.093-27.307 95.573s-47.787 27.307-81.92 27.307c-54.613 0-102.4-27.307-129.707-75.093v-450.56h-143.36v894.293h143.36v-334.507z" />
<glyph unicode="&#xe93c;" glyph-name="syringe" d="M240 176h32v-32c0-8.8 7.2-16 16-16h64c8.8 0 16 7.2 16 16v32h32c8.8 0 16 7.2 16 16v64c0 8.8-7.2 16-16 16h-32v32c0 8.8-7.2 16-16 16h-64c-8.8 0-16-7.2-16-16v-32h-32c-8.8 0-16-7.2-16-16v-64c0-8.8 7.2-16 16-16zM256 240h32c8.8 0 16 7.2 16 16v32h32v-32c0-8.8 7.2-16 16-16h32v-32h-32c-8.8 0-16-7.2-16-16v-32h-32v32c0 8.8-7.2 16-16 16h-32v32zM416 512v32h16c8.8 0 16 7.2 16 16v64c0 26.4-21.6 48-48 48h-160c-26.4 0-48-21.6-48-48v-64c0-8.8 7.2-16 16-16h16v-32c-61.8 0-112-50.2-112-112v-384c0-26.4 21.6-48 48-48h320c26.4 0 48 21.6 48 48v384c0 61.8-50.2 112-112 112zM224 624c0 8.8 7.2 16 16 16h160c8.8 0 16-7.2 16-16v-48h-192v48zM496 16c0-8.8-7.2-16-16-16h-320c-8.8 0-16 7.2-16 16v48h352v-48zM496 96h-352v256h352v-256zM496 384h-352v16c0 44.2 35.8 80 80 80 17.6 0 32 14.4 32 32v32h128v-32c0-17.6 14.4-32 32-32 44.2 0 80-35.8 80-80v-16zM832 128c26.6 0.2 47.8 21.8 47.6 48.4-0.2 20-12.8 38-31.6 44.8v466.8c0 26.4-21.6 48-48 48h-16v16c0 26.4-21.6 48-48 48v112c0 8.8-7.2 16-16 16s-16-7.2-16-16v-112c-26.4 0-48-21.6-48-48v-16h-16c-26.4 0-48-21.6-48-48v-466.8c-25-9-37.8-36.6-28.8-61.4 6.8-18.8 24.6-31.4 44.8-31.6h48v-64h-16c-26.6 0-48-21.4-48-48s21.4-48 48-48h160c26.6 0 48 21.4 48 48s-21.4 48-48 48h-16v64h48zM688 752c0 8.8 7.2 16 16 16h32c8.8 0 16-7.2 16-16v-16h-64v16zM624 688c0 8.8 7.2 16 16 16h160c8.8 0 16-7.2 16-16v-16h-48c-8.8 0-16-7.2-16-16s7.2-16 16-16h48v-32h-80c-8.8 0-16-7.2-16-16s7.2-16 16-16h80v-32h-48c-8.8 0-16-7.2-16-16s7.2-16 16-16h48v-32h-80c-8.8 0-16-7.2-16-16s7.2-16 16-16h80v-32h-48c-8.8 0-16-7.2-16-16s7.2-16 16-16h48v-32h-80c-8.8 0-16-7.2-16-16s7.2-16 16-16h80v-96h-192v464zM800 32c8.8 0 16-7.2 16-16s-7.2-16-16-16h-160c-8.8 0-16 7.2-16 16s7.2 16 16 16h160zM688 64v64h64v-64h-64zM608 160c-8.8 0-16 7.2-16 16s7.2 16 16 16h224c8.8 0 16-7.2 16-16s-7.2-16-16-16h-224z" />
<glyph unicode="&#xe93d;" glyph-name="total-count" d="M821.481 464.391v90.714h-679.167v-419.498l318.071-0.004v29.992h-28.408c0 12.494 0 87.363 0 99.85h44.563v29.992h-44.563v99.832l129.835 0.010 0.004 129.835h99.834v-63.882h29.992v63.882h99.85v-60.723zM302.141 395.281h99.84v-99.844h-99.84zM431.977 525.114h99.844v-99.844h-99.844zM302.141 525.114h99.844v-99.844h-99.844zM172.306 525.114h99.846v-99.844h-99.846zM172.306 395.281h99.846v-99.844h-99.846zM272.149 165.599h-99.844v99.846h99.846v-99.846zM302.141 165.599v99.846h99.84v-99.846zM748.442 425.262c-134.89 0-244.631-109.741-244.631-244.631 0-61.493 22.914-120.27 64.522-165.507l22.076 20.302c-36.504 39.687-56.606 91.254-56.606 145.205 0 118.351 96.287 214.64 214.64 214.64s214.642-96.287 214.642-214.64-96.287-214.64-214.642-214.64c-50.332 0-99.25 17.779-137.743 50.060l-19.273-22.982c43.886-36.802 99.648-57.070 157.014-57.070 134.89 0 244.633 109.741 244.633 244.631s-109.741 244.631-244.631 244.631zM732.51 346.227v-195.297h140.265v29.992h-110.273v165.306zM60.917 608.671h81.397v29.992h-81.397v223.677h65.302v-74.559h0.002v-0.006l120.384 0.006v74.559h76.598v-74.559h0.010v-0.006h120.38v74.565h76.61v-74.565l120.39 0.006v74.559h76.598v-74.559h0.002v-0.006l120.384 0.006v74.559h65.302v-223.677h-730.575v-29.992h730.575v-193.286h29.992v476.946h-95.295v30.321l-27.778 37.347h-64.828l-27.778-37.347v-30.321h-76.608v30.321l-27.778 37.347h-64.826l-27.778-37.347v-30.321h-76.61v30.321l-27.776 37.347h-64.826l-27.778-37.347v-30.321h-76.608v30.321l-27.778 37.347h-64.826l-27.778-37.347v-30.321h-95.295v-835.387h449.054v29.992h-419.062zM760.040 930.008h34.688l12.856-17.287v-94.949h-60.399v94.949zM550.195 912.721l12.856 17.287h34.686l12.856-17.287v-94.949h-60.393v74.559h-0.004v20.39zM366.059 930.008h34.686l12.856-17.287v-20.39h-0.004v-74.559h-60.393v94.949zM169.068 930.008h34.688l12.856-17.287v-94.949h-60.401v94.949zM585.869 687.941h-29.992v29.992h29.992zM495.895 687.941h-29.992v29.992h29.992zM405.92 687.941h-29.992v29.992h29.992zM575.074 180.921h29.992v-29.992h-29.992zM733.656 35.676h29.992v-29.992h-29.992z" />
<glyph unicode="&#xe93e;" glyph-name="archive" d="M994 839.5h-964c-16.568 0-30-13.432-30-30v-180.75c0-16.568 13.432-30 30-30h30.25v-512.25c0-16.568 13.432-30 30-30h843.5c16.568 0 30 13.432 30 30v512.25h30.25c16.568 0 30 13.432 30 30v180.75c0 16.568-13.432 30-30 30zM903.75 116.5h-783.5v482.25h783.5zM964 658.75h-904v120.75h904zM451.75 357.75h120.5c49.764 0 90.25 40.486 90.25 90.25s-40.486 90.25-90.25 90.25h-120.5c-49.764 0-90.25-40.486-90.25-90.25s40.486-90.25 90.25-90.25zM451.75 478.25h120.5c16.68 0 30.25-13.57 30.25-30.25s-13.57-30.25-30.25-30.25h-120.5c-16.68 0-30.25 13.57-30.25 30.25s13.57 30.25 30.25 30.25z" />
<glyph unicode="&#xe93f;" glyph-name="campaign" d="M116.2 48.8h59.6v-50.4h-59.6v50.4zM235.4 48.8h59.6v-50.4h-59.6v50.4zM50.4 55.2h-50.4v-56.8h56.6v50.4h-6.2zM0 789.2h50.4v-61.2h-50.4v61.2zM0 544.6h50.4v-61.2h-50.4v61.2zM0 299.8h50.4v-61.2h-50.4v61.2zM0 177.4h50.4v-61.2h-50.4v61.2zM0 667h50.4v-61.2h-50.4v61.2zM0 422.2h50.4v-61.2h-50.4v61.2zM0 850.4h50.4v6.4h6.2v50.4h-56.6zM382 907.2h65v-50.4h-65v50.4zM672.348 665.781l35.638 35.638 45.962-45.962-35.638-35.638-45.962 45.962zM121.8 907.2h65v-50.4h-65v50.4zM251.8 907.2h65v-50.4h-65v50.4zM718.6 575.6h50.4v-65h-50.4v65zM488.367 849.823l35.638 35.638 45.962-45.962-35.638-35.638-45.962 45.962zM580.357 757.802l35.638 35.638 45.962-45.962-35.638-35.638-45.962 45.962zM349.6 387.2v-228.6l171.6-23.8c-0.6-29.8 7.8-59 25-84 21.6-31.6 54.2-52.6 91.8-59.6 8.8-1.6 17.6-2.4 26.2-2.4 64.2 0 121.8 43.6 138.4 106.8l221.4-30.6v416l-674.4-93.8zM647.2 40.8c-24.4 4.6-45.4 18.2-59.6 38.6-10 14.6-15.4 31.2-16.2 48.4l180.4-25c-14.2-43.2-58.4-70.6-104.6-62zM973.6 122.8l-573.8 79.8v140.8l573.8 79.8v-300.4z" />
<glyph unicode="&#xe940;" glyph-name="patient-list" d="M128.6 960v-181.4h-90.6v-60.2h90.6v-240.4h-90.6v-60h90.6v-240.4h-90.6v-60.2h90.6v-181.4h857.4v1024h-857.4zM925.8-3.8h-737.2v121.4h86.4v60.2h-86.4v240.2h86.4v60h-86.4v240.4h86.4v60.2h-86.4v121.2h737.2v-903.6zM593.6 409.4c91.4 0 165.6-74.4 165.6-165.6h60.2c0 92.2-55.6 171.6-135 206.6 19 21.4 30.8 49.6 30.8 80.4 0 67-54.4 121.4-121.4 121.4s-121.4-54.4-121.4-121.4c0-30.8 11.6-59 30.8-80.4-79.6-35-135.2-114.4-135.2-206.6h60c0 91.4 74.4 165.6 165.6 165.6zM593.6 592.2c33.8 0 61.2-27.4 61.2-61.2s-27.4-61.2-61.2-61.2c-33.8 0-61.2 27.4-61.2 61.2s27.4 61.2 61.2 61.2z" />
<glyph unicode="&#xe941;" glyph-name="template" d="M0 960v-1024h1024v1024h-1024zM967.2 903.2v-302.4h-910.4v302.4h910.4zM609.4 310.8h-552.6v233.2h552.6v-233.2zM56.8 254h552.6v-261.2h-552.6v261.2zM666.2-7.2v551.2h301v-551.2h-301z" />
<glyph unicode="&#xe942;" glyph-name="back" d="M261.060 427.451l460.488-460.335c20.206-20.155 52.943-20.155 73.2 0 20.206 20.155 20.206 52.892 0 73.047l-423.963 423.81 423.912 423.81c20.206 20.155 20.206 52.892 0 73.098-20.206 20.155-52.994 20.155-73.2 0l-460.488-460.331c-19.896-19.947-19.896-53.198 0.051-73.098z" />
<glyph unicode="&#xe943;" glyph-name="automation" d="M896 704c0 70.6 57.4 128 128 128-70.6 0-128 57.4-128 128 0-70.6-57.4-128-128-128 70.6 0 128-57.4 128-128zM928 576c0-53-43-96-96-96 53 0 96-43 96-96 0 53 43 96 96 96-53 0-96 43-96 96zM448 576c0 106 86 192 192 192-106 0-192 86-192 192 0-106-86-192-192-192 106 0 192-86 192-192v0zM704 768l-704-704 128-128 704 704-128 128zM594.8 562.8l90.4 90.4 32-32-90.4-90.4-32 32z" />
<glyph unicode="&#xe944;" glyph-name="transectional" d="M0 345v-110.4h757l-203.6-203.6 78.2-78.2 392.4 392.2zM1024 661.4h-757l203.6 203.6-78.2 78.2-392.4-392.2h1024z" />
<glyph unicode="&#xe945;" glyph-name="calendar-new" d="M854.989 960h-74.24v-79.309h-537.6v79.309h-74.189v-79.309h-168.96v-944.691h1024v944.691h-168.96zM949.811 10.189h-875.52v570.163h875.52zM949.811 806.451v-151.91h-875.52v151.91h94.822v-75.776h74.189v75.776h537.6v-75.776h74.24v75.776zM478.464 493.722h67.072v-67.072h-67.072v67.072zM316.262 493.722h67.123v-67.072h-67.123v67.072zM640.614 493.722h67.072v-67.072h-67.072v67.072zM640.614 331.469h67.072v-67.072h-67.072v67.072zM802.816 331.469h67.072v-67.072h-67.072v67.072zM478.413 331.469h67.123v-67.072h-67.123v67.072zM316.262 331.469h67.123v-67.072h-67.123v67.072zM154.061 331.469h67.072v-67.072h-67.072v67.072zM154.061 169.318h67.072v-67.072h-67.072v67.072zM316.262 169.318h67.123v-67.072h-67.123v67.072zM478.413 169.318h67.123v-67.072h-67.123v67.072zM640.614 169.318h67.072v-67.072h-67.072v67.072zM802.816 493.722h67.072v-67.072h-67.072v67.072z" />
<glyph unicode="&#xe946;" glyph-name="caution-new" d="M512 908.8l-512-918.733h1024zM512 780.186l405.402-727.501h-810.598zM480.666 563.61h62.618v-300.544h-62.618v300.544zM480.666 212.941h62.618v-62.618h-62.618v62.618z" />
<glyph unicode="&#xe947;" glyph-name="scheduler" d="M972.8 891.733h-119.467v51.2c0 9.438-7.629 17.067-17.067 17.067h-119.467c-9.438 0-17.067-7.629-17.067-17.067v-51.2h-375.467v51.2c0 9.438-7.629 17.067-17.067 17.067h-119.467c-9.438 0-17.067-7.629-17.067-17.067v-51.2h-119.467c-9.438 0-17.067-7.629-17.067-17.067v-921.6c0-9.438 7.629-17.067 17.067-17.067h921.6c9.438 0 17.067 7.629 17.067 17.067v921.6c0 9.438-7.629 17.067-17.067 17.067zM733.867 925.867h85.333v-102.4h-85.333v102.4zM204.8 925.867h85.333v-102.4h-85.333v102.4zM68.267 857.6h102.4v-51.2c0-9.438 7.629-17.067 17.067-17.067h119.467c9.438 0 17.067 7.629 17.067 17.067v51.2h375.467v-51.2c0-9.438 7.629-17.067 17.067-17.067h119.467c9.438 0 17.067 7.629 17.067 17.067v51.2h102.4v-153.6h-887.467v153.6zM68.267-29.867v699.733h887.467v-699.733h-887.467zM648.533 567.467h-460.8v-494.933h648.533v494.933h-187.733zM529.067 533.333h119.467v-119.467h-119.467v119.467zM648.533 260.267h-119.467v119.467h119.467v-119.467zM375.467 379.733h119.467v-119.467h-119.467v119.467zM375.467 533.333h119.467v-119.467h-119.467v119.467zM221.867 533.333h119.467v-119.467h-119.467v119.467zM221.867 379.733h119.467v-119.467h-119.467v119.467zM341.333 106.667h-119.467v119.467h119.467v-119.467zM494.933 106.667h-119.467v119.467h119.467v-119.467zM648.533 106.667h-119.467v119.467h119.467v-119.467zM802.133 106.667h-119.467v119.467h119.467v-119.467zM802.133 260.267h-119.467v119.467h119.467v-119.467zM802.133 533.333v-119.467h-119.467v119.467h119.467z" />
<glyph unicode="&#xe948;" glyph-name="custom-forms" d="M874.086 695.040l-264.909 264.909h-532.224v-1024h857.395v698.931zM669.286 814.899l119.859-119.859h-119.859zM136.806-3.891v903.782h472.218v-264.96h264.96v-638.822zM223.898 703.539h288.051v-60.109h-288.051v60.109zM223.898 598.374h144.026v-60.109h-144.026v60.109zM223.898 389.222h532.634v-60.109h-532.634v60.109zM223.898 284.058h532.634v-60.109h-532.634v60.109zM223.898 178.893h532.634v-60.109h-532.634v60.109z" />
<glyph unicode="&#xe949;" glyph-name="dashboard1" d="M650.402 503.404c-0.99-0.038-2.153-0.059-3.321-0.059-49.491 0-89.997 38.471-93.244 87.139l-0.015 0.283c0.019 0.425 0.030 0.924 0.030 1.425 0 14.777-9.546 27.324-22.807 31.812l-0.237 0.070c-12.932 5.357-23.703 10.775-34.035 16.858l1.267-0.69c-10.404 8.864-24.003 14.257-38.861 14.257-12.87 0-24.794-4.046-34.572-10.935l0.19 0.127c-15.629-10.779-43.385-3.611-65.59-5.389-0.337 0.009-0.735 0.013-1.133 0.013-9.586 0-18.514-2.818-26-7.672l0.187 0.113c-36.109-34.277-71.572-69.416-105.58-105.741-5.14-6.666-8.238-15.136-8.238-24.329 0-2.41 0.213-4.771 0.621-7.064l-0.036 0.242c1.933-7.277 3.044-15.632 3.044-24.246 0-45.683-31.229-84.072-73.504-94.982l-0.681-0.149c-6.78-1.669-14.564-2.626-22.572-2.626-45.416 0-83.639 30.798-94.923 72.648l-0.158 0.688c-1.951 7.251-3.071 15.576-3.071 24.163 0 46.78 33.259 85.792 77.421 94.679l0.618 0.104c5.488 1.391 11.789 2.189 18.276 2.189 7.246 0 14.26-0.996 20.911-2.858l-0.545 0.13c4.146-1.819 8.979-2.878 14.060-2.878 11.921 0 22.481 5.829 28.984 14.793l0.072 0.104c31.69 33.792 65.859 65.213 97.388 99.112 5.445 6.813 8.738 15.553 8.738 25.063 0 2.091-0.159 4.145-0.466 6.151l0.028-0.224c-1.997 7.421-3.143 15.941-3.143 24.729 0 49.346 36.16 90.246 83.428 97.648l0.557 0.072c4.152 0.632 8.942 0.992 13.816 0.992 51.321 0 93.303-39.985 96.492-90.501l0.014-0.28c-0.008-0.265-0.013-0.577-0.013-0.89 0-13.988 9.268-25.811 21.998-29.665l0.219-0.057c12.775-5.105 23.573-10.53 33.843-16.742l-1.021 0.573c10.307-9.062 23.913-14.592 38.809-14.592 12.884 0 24.801 4.136 34.498 11.153l-0.172-0.118c15.198 10.402 41.607 3.773 62.787 6.144 0.228-0.003 0.498-0.005 0.767-0.005 11.255 0 21.755 3.233 30.621 8.822l-0.238-0.14c34.547 32.337 66.883 66.668 100.891 99.382 8.041 6.363 13.154 16.121 13.154 27.074 0 4.088-0.712 8.009-2.019 11.647l0.075-0.24c-1.997 7.256-3.145 15.587-3.145 24.187 0 44.967 31.379 82.605 73.435 92.212l0.635 0.122c7.035 1.834 15.111 2.888 23.434 2.888 43.205 0 79.78-28.385 92.093-67.524l0.185-0.684c3.11-8.965 4.906-19.297 4.906-30.049 0-41.758-27.090-77.188-64.655-89.674l-0.667-0.192c-9.565-3.28-20.585-5.173-32.048-5.173-7.741 0-15.281 0.864-22.528 2.5l0.681-0.129c-3.411 1.183-7.343 1.867-11.434 1.867-11.952 0-22.541-5.833-29.077-14.807l-0.071-0.103c-31.528-32.714-63.596-64.997-96.472-96.364-7.504-5.904-12.28-14.985-12.28-25.182 0-3.982 0.728-7.794 2.059-11.309l-0.073 0.22c2.146-7.531 3.381-16.181 3.381-25.12 0-52.476-42.54-95.016-95.016-95.016-0.336 0-0.671 0.002-1.006 0.005h0.051zM944.451 863.151c0 0.054 0.001 0.118 0.001 0.181 0 17.502-14.188 31.69-31.69 31.69-0.759 0-1.511-0.027-2.257-0.079l0.1 0.006c-0.081 0.001-0.177 0.001-0.272 0.001-17.294 0-31.313-14.019-31.313-31.313 0-0.152 0.001-0.304 0.003-0.455v0.023c0-0.035 0-0.076 0-0.118 0-18.26 14.575-33.115 32.726-33.566l0.042-0.001c18.122 0.392 32.662 15.175 32.662 33.354 0 0.116-0.001 0.232-0.002 0.348v-0.018zM419.571 730.301c0.036 0.567 0.057 1.229 0.057 1.895 0 17.472-14.164 31.636-31.636 31.636-0.266 0-0.532-0.003-0.797-0.010l0.039 0.001c-0.507 0.029-1.099 0.046-1.695 0.046-16.944 0-30.761-13.389-31.448-30.165l-0.002-0.062c-0.031-0.542-0.049-1.175-0.049-1.813 0-17.659 13.654-32.129 30.981-33.428l0.112-0.007c0.376-0.015 0.817-0.024 1.26-0.024 17.897 0 32.481 14.185 33.123 31.925l0.002 0.059zM650.132 567.107c17.741 0.641 31.88 15.178 31.88 33.017 0 0.481-0.010 0.96-0.031 1.436l0.002-0.068c0.002 0.135 0.003 0.294 0.003 0.454 0 16.966-13.754 30.72-30.72 30.72-0.418 0-0.834-0.008-1.248-0.025l0.059 0.002c-0.242 0.006-0.526 0.010-0.812 0.010-17.96 0-32.551-14.425-32.818-32.322v-0.025c0.673-18.198 15.389-32.744 33.592-33.145l0.038-0.001zM124.066 435.981c0.097-0.001 0.211-0.002 0.326-0.002 18.068 0 32.714 14.647 32.714 32.714 0 0.133-0.001 0.266-0.002 0.399v-0.020c0.033 0.532 0.052 1.153 0.052 1.779 0 16.877-13.681 30.558-30.558 30.558-0.037 0-0.074 0-0.111 0h0.006c-0.577 0.036-1.252 0.057-1.931 0.057-17.611 0-31.998-13.802-32.935-31.178l-0.004-0.083c0.031-18.273 14.333-33.196 32.354-34.219l0.091-0.004zM1008.371 631.997v-718.417h-194.021v29.588c0 218.489 0.431 436.979-0.539 655.468 0 25.546 5.389 35.193 32.93 34.008 53.194-2.317 106.442-0.647 161.63-0.647zM879.023-22.609c10.779-0.539 19.618-1.24 28.241-1.293 38.104-0.323 38.104 0 38.104 37.726q0 259.503 0 518.952v33.199h-66.344zM483.166-87.175h-191.38c-0.701 8.731-1.994 16.977-1.994 25.277 0 178.284 0 356.514-0.539 534.797 0 21.558 5.389 28.995 27.702 28.403 54.811-1.455 109.73-0.485 166.211-0.485zM354.573-22.501c10.779-0.539 19.456-1.24 28.079-1.293 38.211-0.323 38.265 0 38.265 37.726q0 195.207 0 390.413v30.774h-66.291zM745.849 369.637v-455.464h-191.865c-0.593 8.084-1.779 16.492-1.779 24.792 0 133.659 0.593 267.318-0.647 401.031 0 25.115 8.354 30.72 31.367 30.073 53.841-1.401 107.736-0.431 162.924-0.431zM618.011 304.64v-328.758c5.311 0.369 11.51 0.58 17.758 0.58s12.447-0.211 18.59-0.625l-0.832 0.045c24.953-3.395 30.612 7.599 30.289 30.936-1.186 89.896-0.431 179.847-0.539 269.743 0 9.216-0.97 18.486-1.509 28.187zM220.591-87.121h-191.003c-1.088 6.419-1.934 14.208-2.349 22.11l-0.022 0.526c0 92.591 0.323 185.182-0.485 277.773 0 19.187 5.389 25.977 25.115 25.546 55.673-1.132 111.4-0.377 168.691-0.377zM92.968 173.514v-197.416c15.629 0 29.534 0.862 43.116 0 17.408-1.401 22.797 5.982 22.366 22.744-0.916 33.954 0 68.015 0 102.023 0 24.037 0 48.128 0 72.812z" />
<glyph unicode="&#xe94a;" glyph-name="insurance-new" d="M0 857.6v-800.41h1035.162v800.614zM961.894 130.304h-888.576v653.926h888.576zM290.048 280.166h73.318v139.622h140.493v73.318h-140.493v141.363h-73.318v-141.363h-140.493v-73.318h140.493zM608.614 634.419h276.992v-73.318h-276.992v73.318zM608.614 353.485h138.496v-73.318h-138.496v73.318zM608.614 493.926h276.992v-73.318h-276.992v73.318z" />
</font>
</defs>
</svg>
